  0
SECTION
  2
HEADER
  9
$ACADVER
  1
AC1014
  9
$ACADMAINTVER
 70
     9
  9
$DWGCODEPAGE
  3
ANSI_1252
  9
$INSBASE
 10
0.0
 20
0.0
 30
0.0
  9
$EXTMIN
 10
0.0
 20
0.0
 30
0.0
  9
$EXTMAX
 10
594.0
 20
841.0
 30
0.0
  9
$LIMMIN
 10
0.0
 20
0.0
  9
$LIMMAX
 10
594.0
 20
841.0
  9
$ORTHOMODE
 70
     0
  9
$REGENMODE
 70
     1
  9
$FILLMODE
 70
     1
  9
$QTEXTMODE
 70
     0
  9
$MIRRTEXT
 70
     1
  9
$DRAGMODE
 70
     2
  9
$LTSCALE
 40
1.0
  9
$OSMODE
 70
    37
  9
$ATTMODE
 70
     1
  9
$TEXTSIZE
 40
10.0
  9
$TRACEWID
 40
1.0
  9
$TEXTSTYLE
  7
STANDARD
  9
$CLAYER
  8
0
  9
$CELTYPE
  6
BYLAYER
  9
$CECOLOR
 62
   256
  9
$CELTSCALE
 40
1.0
  9
$DELOBJ
 70
     1
  9
$DISPSILH
 70
     0
  9
$DIMSCALE
 40
1.0
  9
$DIMASZ
 40
2.5
  9
$DIMEXO
 40
0.0
  9
$DIMDLI
 40
3.75
  9
$DIMRND
 40
0.0
  9
$DIMDLE
 40
0.0
  9
$DIMEXE
 40
1.0
  9
$DIMTP
 40
0.0
  9
$DIMTM
 40
0.0
  9
$DIMTXT
 40
3.5
  9
$DIMCEN
 40
2.5
  9
$DIMTSZ
 40
0.0
  9
$DIMTOL
 70
     0
  9
$DIMLIM
 70
     0
  9
$DIMTIH
 70
     1
  9
$DIMTOH
 70
     1
  9
$DIMSE1
 70
     0
  9
$DIMSE2
 70
     0
  9
$DIMTAD
 70
     1
  9
$DIMZIN
 70
     0
  9
$DIMBLK
  1

  9
$DIMASO
 70
     1
  9
$DIMSHO
 70
     1
  9
$DIMPOST
  1

  9
$DIMAPOST
  1

  9
$DIMALT
 70
     0
  9
$DIMALTD
 70
     3
  9
$DIMALTF
 40
0.0393700787
  9
$DIMLFAC
 40
1.0
  9
$DIMTOFL
 70
     1
  9
$DIMTVP
 40
0.0
  9
$DIMTIX
 70
     0
  9
$DIMSOXD
 70
     0
  9
$DIMSAH
 70
     0
  9
$DIMBLK1
  1

  9
$DIMBLK2
  1

  9
$DIMSTYLE
  2
ISO-25
  9
$DIMCLRD
 70
     0
  9
$DIMCLRE
 70
     0
  9
$DIMCLRT
 70
     0
  9
$DIMTFAC
 40
1.0
  9
$DIMGAP
 40
1.5
  9
$DIMJUST
 70
     0
  9
$DIMSD1
 70
     0
  9
$DIMSD2
 70
     0
  9
$DIMTOLJ
 70
     0
  9
$DIMTZIN
 70
     0
  9
$DIMALTZ
 70
     0
  9
$DIMALTTZ
 70
     0
  9
$DIMFIT
 70
     3
  9
$DIMUPT
 70
     0
  9
$DIMUNIT
 70
     2
  9
$DIMDEC
 70
     2
  9
$DIMTDEC
 70
     2
  9
$DIMALTU
 70
     2
  9
$DIMALTTD
 70
     3
  9
$DIMTXSTY
  7
STANDARD
  9
$DIMAUNIT
 70
     0
  9
$LUNITS
 70
     2
  9
$LUPREC
 70
     2
  9
$SKETCHINC
 40
1.0
  9
$FILLETRAD
 40
10.0
  9
$AUNITS
 70
     0
  9
$AUPREC
 70
     2
  9
$MENU
  1
.
  9
$ELEVATION
 40
0.0
  9
$PELEVATION
 40
0.0
  9
$THICKNESS
 40
0.0
  9
$LIMCHECK
 70
     0
  9
$CHAMFERA
 40
0.0
  9
$CHAMFERB
 40
0.0
  9
$CHAMFERC
 40
0.0
  9
$CHAMFERD
 40
0.0
  9
$SKPOLY
 70
     0
  9
$TDCREATE
 40
2457605.66000515
  9
$TDUPDATE
 40
2457605.660007674
  9
$TDINDWG
 40
0.0000000116
  9
$TDUSRTIMER
 40
0.0000000116
  9
$USRTIMER
 70
     1
  9
$ANGBASE
 50
0.0
  9
$ANGDIR
 70
     0
  9
$PDMODE
 70
     0
  9
$PDSIZE
 40
-1.0
  9
$PLINEWID
 40
0.0
  9
$COORDS
 70
     1
  9
$SPLFRAME
 70
     0
  9
$SPLINETYPE
 70
     6
  9
$SPLINESEGS
 70
     8
  9
$ATTDIA
 70
     0
  9
$ATTREQ
 70
     1
  9
$HANDLING
 70
     1
  9
$HANDSEED
  5
1D1
  9
$SURFTAB1
 70
     6
  9
$SURFTAB2
 70
     6
  9
$SURFTYPE
 70
     6
  9
$SURFU
 70
     6
  9
$SURFV
 70
     6
  9
$UCSNAME
  2

  9
$UCSORG
 10
0.0
 20
0.0
 30
0.0
  9
$UCSXDIR
 10
1.0
 20
0.0
 30
0.0
  9
$UCSYDIR
 10
0.0
 20
1.0
 30
0.0
  9
$PUCSNAME
  2

  9
$PUCSORG
 10
0.0
 20
0.0
 30
0.0
  9
$PUCSXDIR
 10
1.0
 20
0.0
 30
0.0
  9
$PUCSYDIR
 10
0.0
 20
1.0
 30
0.0
  9
$USERI1
 70
     0
  9
$USERI2
 70
     0
  9
$USERI3
 70
     0
  9
$USERI4
 70
     0
  9
$USERI5
 70
     0
  9
$USERR1
 40
0.0
  9
$USERR2
 40
0.0
  9
$USERR3
 40
0.0
  9
$USERR4
 40
0.0
  9
$USERR5
 40
0.0
  9
$WORLDVIEW
 70
     1
  9
$SHADEDGE
 70
     3
  9
$SHADEDIF
 70
    70
  9
$TILEMODE
 70
     1
  9
$MAXACTVP
 70
    64
  9
$PINSBASE
 10
0.0
 20
0.0
 30
0.0
  9
$PLIMCHECK
 70
     0
  9
$PEXTMIN
 10
1.0000000000E+20
 20
1.0000000000E+20
 30
1.0000000000E+20
  9
$PEXTMAX
 10
-1.0000000000E+20
 20
-1.0000000000E+20
 30
-1.0000000000E+20
  9
$PLIMMIN
 10
0.0
 20
0.0
  9
$PLIMMAX
 10
420.0
 20
297.0
  9
$UNITMODE
 70
     0
  9
$VISRETAIN
 70
     1
  9
$PLINEGEN
 70
     0
  9
$PSLTSCALE
 70
     1
  9
$TREEDEPTH
 70
  3020
  9
$PICKSTYLE
 70
     1
  9
$CMLSTYLE
  2
STANDARD
  9
$CMLJUST
 70
     0
  9
$CMLSCALE
 40
20.0
  9
$PROXYGRAPHICS
 70
     1
  9
$MEASUREMENT
 70
     1
  0
ENDSEC
  0
SECTION
  2
CLASSES
  0
CLASS
  1
ACDBDICTIONARYWDFLT
  2
AcDbDictionaryWithDefault
  3
ObjectDBX Classes
 90
        0
280
     0
281
     0
  0
CLASS
  1
VISUALSTYLE
  2
AcDbVisualStyle
  3
ObjectDBX Classes
 90
     4095
280
     0
281
     0
  0
CLASS
  1
MATERIAL
  2
AcDbMaterial
  3
ObjectDBX Classes
 90
     1153
280
     0
281
     0
  0
CLASS
  1
SCALE
  2
AcDbScale
  3
ObjectDBX Classes
 90
     1153
280
     0
281
     0
  0
CLASS
  1
SUN
  2
AcDbSun
  3
SCENEOE
 90
     1153
280
     0
281
     0
  0
CLASS
  1
XRECORD
  2
AcDbXrecord
  3
ObjectDBX Classes
 90
        0
280
     0
281
     0
  0
CLASS
  1
LWPOLYLINE
  2
AcDbPolyline
  3
ObjectDBX Classes
 90
        0
280
     0
281
     1
  0
CLASS
  1
HATCH
  2
AcDbHatch
  3
ObjectDBX Classes
 90
        0
280
     0
281
     1
  0
ENDSEC
  0
SECTION
  2
TABLES
  0
TABLE
  2
VPORT
  5
8
330
0
100
AcDbSymbolTable
 70
     1
  0
VPORT
  5
29
330
8
100
AcDbSymbolTableRecord
100
AcDbViewportTableRecord
  2
*ACTIVE
 70
     0
 10
0.0
 20
0.0
 11
1.0
 21
1.0
 12
297.0
 22
420.5
 13
0.0
 23
0.0
 14
10.0
 24
10.0
 15
10.0
 25
10.0
 16
0.0
 26
0.0
 36
1.0
 17
0.0
 27
0.0
 37
0.0
 40
841.0
 41
0.7063020214
 42
50.0
 43
0.0
 44
0.0
 50
0.0
 51
0.0
 71
     0
 72
  2000
 73
     1
 74
     3
 75
     0
 76
     0
 77
     0
 78
     0
  0
ENDTAB
  0
TABLE
  2
LTYPE
  5
5
330
0
100
AcDbSymbolTable
 70
     6
  0
LTYPE
  5
14
330
5
100
AcDbSymbolTableRecord
100
AcDbLinetypeTableRecord
  2
BYBLOCK
 70
     0
  3

 72
    65
 73
     0
 40
0.0
  0
LTYPE
  5
15
330
5
100
AcDbSymbolTableRecord
100
AcDbLinetypeTableRecord
  2
BYLAYER
 70
     0
  3

 72
    65
 73
     0
 40
0.0
  0
LTYPE
  5
16
330
5
100
AcDbSymbolTableRecord
100
AcDbLinetypeTableRecord
  2
CONTINUOUS
 70
     0
  3
Solid line
 72
    65
 73
     0
 40
0.0
  0
LTYPE
  5
6A
330
5
100
AcDbSymbolTableRecord
100
AcDbLinetypeTableRecord
  2
HIDDEN
 70
     0
  3
Hidden __ __ __ __ __ __ __ __ __ __ __ __ __ __
 72
    65
 73
     2
 40
1.905
 49
1.27
 74
     0
 49
-0.635
 74
     0
  0
LTYPE
  5
6B
330
5
100
AcDbSymbolTableRecord
100
AcDbLinetypeTableRecord
  2
PHANTOM
 70
     0
  3
Phantom ______  __  __  ______  __  __  ______
 72
    65
 73
     6
 40
12.7
 49
6.35
 74
     0
 49
-1.27
 74
     0
 49
1.27
 74
     0
 49
-1.27
 74
     0
 49
1.27
 74
     0
 49
-1.27
 74
     0
  0
LTYPE
  5
6C
330
5
100
AcDbSymbolTableRecord
100
AcDbLinetypeTableRecord
  2
CENTER
 70
     0
  3
Center ____ _ ____ _ ____ _ ____ _ ____ _ ____
 72
    65
 73
     4
 40
10.16
 49
6.35
 74
     0
 49
-1.27
 74
     0
 49
1.27
 74
     0
 49
-1.27
 74
     0
  0
LTYPE
  5
6D
330
5
100
AcDbSymbolTableRecord
100
AcDbLinetypeTableRecord
  2
CENTERX2
 70
     0
  3
Center (2x) ________  __  ________  __  _____
 72
    65
 73
     4
 40
20.32
 49
12.7
 74
     0
 49
-2.54
 74
     0
 49
2.54
 74
     0
 49
-2.54
 74
     0
  0
LTYPE
  5
6E
330
5
100
AcDbSymbolTableRecord
100
AcDbLinetypeTableRecord
  2
DOT2
 70
     0
  3
Dot (.5x) ........................................
 72
    65
 73
     2
 40
0.635
 49
0.0
 74
     0
 49
-0.635
 74
     0
  0
ENDTAB
  0
TABLE
  2
LAYER
  5
2
330
0
100
AcDbSymbolTable
 70
     1
  0
LAYER
  5
10
330
2
100
AcDbSymbolTableRecord
100
AcDbLayerTableRecord
  2
0
 70
     0
 62
     7
  6
CONTINUOUS
  0
ENDTAB
  0
TABLE
  2
STYLE
  5
3
330
0
100
AcDbSymbolTable
 70
     3
  0
STYLE
  5
11
330
3
100
AcDbSymbolTableRecord
100
AcDbTextStyleTableRecord
  2
STANDARD
 70
     0
 40
0.0
 41
1.0
 50
0.0
 71
     0
 42
10.0
  3
txt
  4

  0
STYLE
  5
72
330
3
100
AcDbSymbolTableRecord
100
AcDbTextStyleTableRecord
  2
SLDTEXTSTYLE0
 70
     0
 40
0.0
 41
0.96
 50
0.0
 71
     0
 42
10.0
  3
ISOCP3
  4

  0
STYLE
  5
89
330
3
100
AcDbSymbolTableRecord
100
AcDbTextStyleTableRecord
  2
SLDTEXTSTYLE1
 70
     0
 40
0.0
 41
0.605
 50
0.0
 71
     0
 42
10.0
  3
TXT
  4

  0
ENDTAB
  0
TABLE
  2
VIEW
  5
6
330
0
100
AcDbSymbolTable
 70
     0
  0
ENDTAB
  0
TABLE
  2
UCS
  5
7
330
0
100
AcDbSymbolTable
 70
     0
  0
ENDTAB
  0
TABLE
  2
APPID
  5
9
330
0
100
AcDbSymbolTable
 70
     1
  0
APPID
  5
12
330
9
100
AcDbSymbolTableRecord
100
AcDbRegAppTableRecord
  2
ACAD
 70
     0
  0
ENDTAB
  0
TABLE
  2
DIMSTYLE
  5
A
330
0
100
AcDbSymbolTable
 70
     2
  0
DIMSTYLE
105
27
330
A
100
AcDbSymbolTableRecord
100
AcDbDimStyleTableRecord
  2
ISO-25
 70
     0
  3

  4

  5

  6

  7

 40
1.0
 41
2.5
 42
0.625
 43
3.75
 44
1.25
 45
0.0
 46
0.0
 47
0.0
 48
0.0
140
2.5
141
2.5
142
0.0
143
0.0393700787
144
1.0
145
0.0
146
1.0
147
0.625
 71
     0
 72
     0
 73
     0
 74
     0
 75
     0
 76
     0
 77
     1
 78
     8
170
     0
171
     3
172
     1
173
     0
174
     0
175
     0
176
     0
177
     0
178
     0
270
     2
271
     2
272
     2
273
     2
274
     3
340
11
275
     0
280
     0
281
     0
282
     0
283
     0
284
     8
285
     0
286
     0
287
     3
288
     0
  0
DIMSTYLE
105
73
102
{ACAD_REACTORS
330
71
330
7E
102
}
330
A
100
AcDbSymbolTableRecord
100
AcDbDimStyleTableRecord
  2
SLDDIMSTYLE0
 70
     0
  3

  4

  5

  6

  7

 40
1.0
 41
2.5
 42
0.0625
 43
0.38
 44
0.0
 45
0.000000001
 46
0.0
 47
0.0
 48
0.0
140
6.0
141
0.09
142
0.0
143
25.4
144
1.0
145
0.0
146
1.0
147
1.5
 71
     0
 72
     0
 73
     0
 74
     0
 75
     0
 76
     0
 77
     1
 78
    12
170
     0
171
     2
172
     0
173
     1
174
     0
175
     0
176
     0
177
     0
178
     0
270
     2
271
     2
272
     2
273
     2
274
     2
340
72
275
     0
280
     0
281
     0
282
     0
283
     1
284
    12
285
     0
286
     0
287
     3
288
     0
  0
ENDTAB
  0
TABLE
  2
BLOCK_RECORD
  5
1
330
0
100
AcDbSymbolTable
 70
     3
  0
BLOCK_RECORD
  5
1F
330
1
100
AcDbSymbolTableRecord
100
AcDbBlockTableRecord
  2
*MODEL_SPACE
  0
BLOCK_RECORD
  5
1B
330
1
100
AcDbSymbolTableRecord
100
AcDbBlockTableRecord
  2
*PAPER_SPACE
  0
BLOCK_RECORD
  5
23
330
1
100
AcDbSymbolTableRecord
100
AcDbBlockTableRecord
  2
*PAPER_SPACE0
  0
BLOCK_RECORD
  5
74
330
1
100
AcDbSymbolTableRecord
100
AcDbBlockTableRecord
  2
_D
  0
BLOCK_RECORD
  5
7F
330
1
100
AcDbSymbolTableRecord
100
AcDbBlockTableRecord
  2
_D_1
  0
ENDTAB
  0
ENDSEC
  0
SECTION
  2
BLOCKS
  0
BLOCK
  5
20
330
1F
100
AcDbEntity
  8
0
100
AcDbBlockBegin
  2
*MODEL_SPACE
 70
     0
 10
0.0
 20
0.0
 30
0.0
  3
*MODEL_SPACE
  1

  0
ENDBLK
  5
21
330
1F
100
AcDbEntity
  8
0
100
AcDbBlockEnd
  0
BLOCK
  5
1C
330
1B
100
AcDbEntity
 67
     1
  8
0
100
AcDbBlockBegin
  2
*PAPER_SPACE
 70
     0
 10
0.0
 20
0.0
 30
0.0
  3
*PAPER_SPACE
  1

  0
ENDBLK
  5
1D
330
1B
100
AcDbEntity
 67
     1
  8
0
100
AcDbBlockEnd
  0
BLOCK
  5
24
330
23
100
AcDbEntity
  8
0
100
AcDbBlockBegin
  2
*PAPER_SPACE0
 70
     0
 10
0.0
 20
0.0
 30
0.0
  3
*PAPER_SPACE0
  1
*PAPER_SPACE0
  0
ENDBLK
  5
25
330
23
100
AcDbEntity
  8
0
100
AcDbBlockEnd
  0
BLOCK
  5
75
330
74
100
AcDbEntity
  8
0
100
AcDbBlockBegin
  2
_D
 70
     0
 10
0.0
 20
0.0
 30
0.0
  3
_D
  1
_D
  0
SOLID
  5
77
330
74
100
AcDbEntity
  8
0
  6
CONTINUOUS
 62
     7
100
AcDbTrace
 10
42.7614395004
 20
152.0299240879
 30
0.0
 11
42.4614395004
 21
149.5299240879
 31
0.0
 12
43.0614395004
 22
149.5299240879
 32
0.0
 13
43.0614395004
 23
149.5299240879
 33
0.0
  0
SOLID
  5
78
330
74
100
AcDbEntity
  8
0
  6
CONTINUOUS
 62
     7
100
AcDbTrace
 10
42.7614395004
 20
52.0299240879
 30
0.0
 11
43.0614395004
 21
54.5299240879
 31
0.0
 12
42.4614395004
 22
54.5299240879
 32
0.0
 13
42.4614395004
 23
54.5299240879
 33
0.0
  0
LINE
  5
79
330
74
100
AcDbEntity
  8
0
  6
CONTINUOUS
 62
     7
100
AcDbLine
 10
56.6850079902
 20
152.0299240879
 30
0.0
 11
41.7614395004
 21
152.0299240879
 31
0.0
  0
LINE
  5
7A
330
74
100
AcDbEntity
  8
0
  6
CONTINUOUS
 62
     7
100
AcDbLine
 10
56.6850079902
 20
52.0299240879
 30
0.0
 11
41.7614395004
 21
52.0299240879
 31
0.0
  0
LINE
  5
7B
330
74
100
AcDbEntity
  8
0
  6
CONTINUOUS
 62
     7
100
AcDbLine
 10
42.7614395004
 20
152.0299240879
 30
0.0
 11
42.7614395004
 21
52.0299240879
 31
0.0
  0
MTEXT
  5
7C
330
74
100
AcDbEntity
  8
0
  6
CONTINUOUS
 62
     7
100
AcDbMText
 10
35.0270332946
 20
94.3680541463
 30
0.0
 40
6.0
 41
0.0
 71
     1
 72
     1
  1
100
  7
SLDTEXTSTYLE0
 11
-7.044195017643634E-15
 21
1.0
 31
0.0
  0
MTEXT
  5
7D
330
74
100
AcDbEntity
  8
0
  6
CONTINUOUS
 62
     7
100
AcDbMText
 10
35.0270332946
 20
105.7430548466
 30
0.0
 40
6.0
 41
0.0
 71
     1
 72
     1
  1
mm
  7
SLDTEXTSTYLE0
 11
-7.044195017643634E-15
 21
1.0
 31
0.0
  0
ENDBLK
  5
76
330
74
100
AcDbEntity
  8
0
100
AcDbBlockEnd
  0
BLOCK
  5
80
330
7F
100
AcDbEntity
  8
0
100
AcDbBlockBegin
  2
_D_1
 70
     0
 10
0.0
 20
0.0
 30
0.0
  3
_D_1
  1
_D_1
  0
SOLID
  5
82
330
7F
100
AcDbEntity
  8
0
  6
CONTINUOUS
 62
     7
100
AcDbTrace
 10
56.6850079902
 20
38.4602342313
 30
0.0
 11
59.1850079902
 21
38.1602342313
 31
0.0
 12
59.1850079902
 22
38.7602342313
 32
0.0
 13
59.1850079902
 23
38.7602342313
 33
0.0
  0
SOLID
  5
83
330
7F
100
AcDbEntity
  8
0
  6
CONTINUOUS
 62
     7
100
AcDbTrace
 10
156.6850079902
 20
38.4602342313
 30
0.0
 11
154.1850079902
 21
38.7602342313
 31
0.0
 12
154.1850079902
 22
38.1602342313
 32
0.0
 13
154.1850079902
 23
38.1602342313
 33
0.0
  0
LINE
  5
84
330
7F
100
AcDbEntity
  8
0
  6
CONTINUOUS
 62
     7
100
AcDbLine
 10
56.6850079902
 20
52.0299240879
 30
0.0
 11
56.6850079902
 21
37.4602342313
 31
0.0
  0
LINE
  5
85
330
7F
100
AcDbEntity
  8
0
  6
CONTINUOUS
 62
     7
100
AcDbLine
 10
156.6850079902
 20
52.0299240879
 30
0.0
 11
156.6850079902
 21
37.4602342313
 31
0.0
  0
LINE
  5
86
330
7F
100
AcDbEntity
  8
0
  6
CONTINUOUS
 62
     7
100
AcDbLine
 10
56.6850079902
 20
38.4602342313
 30
0.0
 11
156.6850079902
 21
38.4602342313
 31
0.0
  0
MTEXT
  5
87
330
7F
100
AcDbEntity
  8
0
  6
CONTINUOUS
 62
     7
100
AcDbMText
 10
93.9626484861
 20
46.1946404371
 30
0.0
 40
6.0
 41
0.0
 71
     1
 72
     1
  1
100
  7
SLDTEXTSTYLE0
  0
MTEXT
  5
88
330
7F
100
AcDbEntity
  8
0
  6
CONTINUOUS
 62
     7
100
AcDbMText
 10
105.3376491864
 20
46.1946404371
 30
0.0
 40
6.0
 41
0.0
 71
     1
 72
     1
  1
mm
  7
SLDTEXTSTYLE0
  0
ENDBLK
  5
81
330
7F
100
AcDbEntity
  8
0
100
AcDbBlockEnd
  0
ENDSEC
  0
SECTION
  2
ENTITIES
  0
LINE
  5
6F
330
1F
100
AcDbEntity
  8
0
  6
CONTINUOUS
 62
     7
100
AcDbLine
 10
56.6850079902
 20
152.0299240879
 30
0.0
 11
56.6850079902
 21
52.0299240879
 31
0.0
  0
LINE
  5
70
330
1F
100
AcDbEntity
  8
0
  6
CONTINUOUS
 62
     7
100
AcDbLine
 10
56.6850079902
 20
52.0299240879
 30
0.0
 11
156.6850079902
 21
52.0299240879
 31
0.0
  0
DIMENSION
  5
71
330
1F
100
AcDbEntity
  8
0
  6
CONTINUOUS
 62
     7
100
AcDbDimension
  2
_D
 10
42.7614395004
 20
52.0299240879
 30
0.0
 11
42.7614395004
 21
105.4472211621
 31
0.0
 70
   160
  1
<>mm
  3
SLDDIMSTYLE0
100
AcDbAlignedDimension
 13
56.6850079902
 23
152.0299240879
 33
0.0
 14
56.6850079902
 24
52.0299240879
 34
0.0
 50
90.0
100
AcDbRotatedDimension
  0
DIMENSION
  5
7E
330
1F
100
AcDbEntity
  8
0
  6
CONTINUOUS
 62
     7
100
AcDbDimension
  2
_D_1
 10
156.6850079902
 20
38.4602342313
 30
0.0
 11
105.0418155019
 21
38.4602342313
 31
0.0
 70
   160
  1
<>mm
  3
SLDDIMSTYLE0
100
AcDbAlignedDimension
 13
56.6850079902
 23
52.0299240879
 33
0.0
 14
156.6850079902
 24
52.0299240879
 34
0.0
100
AcDbRotatedDimension
  0
MTEXT
  5
8A
330
1F
100
AcDbEntity
  8
0
  6
CONTINUOUS
 62
     7
100
AcDbMText
 10
412.8252631579
 20
48.4342449499
 30
0.0
 40
10.0
 41
0.0
 71
     1
 72
     1
  1
KLUDI GmbH & Co KG
  7
SLDTEXTSTYLE1
  0
MTEXT
  5
8B
330
1F
100
AcDbEntity
  8
0
  6
CONTINUOUS
 62
     7
100
AcDbMText
 10
210.0873490389
 20
48.4342449499
 30
0.0
 40
10.0
 41
0.0
 71
     1
 72
     1
  1
36 822 05 44
  7
SLDTEXTSTYLE1
  0
LINE
  5
8C
330
1F
100
AcDbEntity
  8
0
  6
CONTINUOUS
 62
     7
100
AcDbLine
 10
123.5778460578
 20
721.3005409309
 30
0.0
 11
123.5778460578
 21
712.9726395676
 31
0.0
  0
LINE
  5
8D
330
1F
100
AcDbEntity
  8
0
  6
CONTINUOUS
 62
     7
100
AcDbLine
 10
147.0778452531
 20
712.9726395676
 30
0.0
 11
147.0778452531
 21
721.246837146
 31
0.0
  0
ARC
  5
8E
330
1F
100
AcDbEntity
  8
0
  6
CONTINUOUS
 62
     7
100
AcDbCircle
 10
135.3278456554
 20
728.4726401875
 30
0.0
 40
13.99933750540748
100
AcDbArc
 50
0.0
 51
212.9310446828
  0
ARC
  5
8F
330
1F
100
AcDbEntity
  8
0
  6
CONTINUOUS
 62
     7
100
AcDbCircle
 10
135.3278456554
 20
728.4726401875
 30
0.0
 40
13.99933750540748
100
AcDbArc
 50
327.0689553172
 51
0.0
  0
LINE
  5
90
330
1F
100
AcDbEntity
  8
0
  6
CONTINUOUS
 62
     7
100
AcDbLine
 10
121.3278452233
 20
728.4726337263
 30
0.0
 11
121.3278452233
 21
683.4726468393
 31
0.0
  0
LINE
  5
91
330
1F
100
AcDbEntity
  8
0
  6
CONTINUOUS
 62
     7
100
AcDbLine
 10
149.3278460876
 20
683.4726468393
 30
0.0
 11
149.3278460876
 21
728.4726337263
 31
0.0
  0
SPLINE
  5
92
330
1F
100
AcDbEntity
  8
0
  6
CONTINUOUS
 62
     7
100
AcDbSpline
210
0.0
220
0.0
230
1.0
 70
     8
 71
     3
 72
    15
 73
    11
 74
     0
 42
0.000000001
 43
0.00000001
 40
0.0
 40
0.0
 40
0.0
 40
0.0
 40
0.1108837630847184
 40
0.2543566688592604
 40
0.4023200804629918
 40
0.5491445508033258
 40
0.6658148349028359
 40
0.783116856460281
 40
0.9113764225587436
 40
1.0
 40
1.0
 40
1.0
 40
1.0
 10
223.4391717538784
 20
516.9411883422837
 30
0.0
 10
223.5818915453625
 20
519.4079193536157
 30
0.0
 10
223.9092769959668
 20
525.0663626239339
 30
0.0
 10
224.0672839404332
 20
533.913377094792
 30
0.0
 10
224.078428445296
 20
543.4721242575689
 30
0.0
 10
224.0470163620721
 20
552.4157003280765
 30
0.0
 10
224.0226424767027
 20
560.6580426263569
 30
0.0
 10
223.9980864443573
 20
568.4509719381477
 30
0.0
 10
223.9800547672769
 20
575.763729793197
 30
0.0
 10
223.9542268252638
 20
580.5602350062153
 30
0.0
 10
223.9436729178379
 20
582.5202003786072
 30
0.0
  0
SPLINE
  5
93
330
1F
100
AcDbEntity
  8
0
  6
CONTINUOUS
 62
     7
100
AcDbSpline
210
0.0
220
0.0
230
1.0
 70
     8
 71
     3
 72
    20
 73
    16
 74
     0
 42
0.000000001
 43
0.00000001
 40
0.0
 40
0.0
 40
0.0
 40
0.0
 40
0.0902531169339856
 40
0.1809150815916062
 40
0.2529802940765654
 40
0.3294172716384078
 40
0.3765992225978757
 40
0.4670851704308324
 40
0.5618350869617683
 40
0.665243300248865
 40
0.7799322585633548
 40
0.8433338885304067
 40
0.9180629327707425
 40
0.9830113055318589
 40
1.0
 40
1.0
 40
1.0
 40
1.0
 10
212.8138764128635
 20
578.6452688941464
 30
0.0
 10
212.7663262426843
 20
577.7535151689456
 30
0.0
 10
212.6710104994732
 20
575.9659680632614
 30
0.0
 10
212.2086119745544
 20
573.6337614017649
 30
0.0
 10
211.5866289302377
 20
571.5315189105302
 30
0.0
 10
210.9211525199146
 20
569.9111098821371
 30
0.0
 10
209.9640389945794
 20
568.0795252864027
 30
0.0
 10
208.6521553757377
 20
566.1594185518362
 30
0.0
 10
206.5611007280158
 20
564.0527328126416
 30
0.0
 10
203.8837172546796
 20
562.2695045985229
 30
0.0
 10
201.1039578098473
 20
561.1375855078893
 30
0.0
 10
198.4366271651277
 20
560.4811594281036
 30
0.0
 10
196.2274545224904
 20
560.1827830534064
 30
0.0
 10
194.5029139343907
 20
560.0577655314962
 30
0.0
 10
193.6007470700804
 20
560.0826995956526
 30
0.0
 10
193.4136933014343
 20
560.0878693828091
 30
0.0
  0
LINE
  5
94
330
1F
100
AcDbEntity
  8
0
  6
CONTINUOUS
 62
     7
100
AcDbLine
 10
193.4354564474
 20
560.0726403961
 30
0.0
 11
189.6278446839
 21
560.0726403961
 31
0.0
  0
LINE
  5
95
330
1F
100
AcDbEntity
  8
0
  6
CONTINUOUS
 62
     7
100
AcDbLine
 10
199.50974717
 20
512.0726399788
 30
0.0
 11
210.0891469345
 21
512.0726399788
 31
0.0
  0
SPLINE
  5
96
330
1F
100
AcDbEntity
  8
0
  6
CONTINUOUS
 62
     7
100
AcDbSpline
210
0.0
220
0.0
230
1.0
 70
     8
 71
     3
 72
    18
 73
    14
 74
     0
 42
0.000000001
 43
0.00000001
 40
0.0
 40
0.0
 40
0.0
 40
0.0
 40
0.0513762518154839
 40
0.1864605973370308
 40
0.2933246297458235
 40
0.3791361224602607
 40
0.4478657459537225
 40
0.500941598461253
 40
0.5881773801070806
 40
0.6755687096901934
 40
0.776383266317122
 40
0.9113676031860347
 40
1.0
 40
1.0
 40
1.0
 40
1.0
 10
160.6668381318996
 20
502.0781033405765
 30
0.0
 10
160.6298756092631
 20
502.4052275962727
 30
0.0
 10
160.495726974313
 20
503.5924645387335
 30
0.0
 10
160.7084899286488
 20
505.4715344009105
 30
0.0
 10
161.2881394174025
 20
507.4864065681884
 30
0.0
 10
162.1187485807538
 20
508.9476789605314
 30
0.0
 10
163.0019850292902
 20
509.9505562614355
 30
0.0
 10
164.0323584398473
 20
510.8071196052098
 30
0.0
 10
165.3635186103646
 20
511.5377838070669
 30
0.0
 10
167.0891594446581
 20
511.9904494541462
 30
0.0
 10
168.9056840530154
 20
512.1258359069517
 30
0.0
 10
170.7285944412367
 20
512.1319084820774
 30
0.0
 10
171.8764145362961
 20
512.0978511894963
 30
0.0
 10
172.3313628063152
 20
512.0843522915349
 30
0.0
  0
SPLINE
  5
97
330
1F
100
AcDbEntity
  8
0
  6
CONTINUOUS
 62
     7
100
AcDbSpline
210
0.0
220
0.0
230
1.0
 70
     8
 71
     3
 72
    13
 73
     9
 74
     0
 42
0.000000001
 43
0.00000001
 40
0.0
 40
0.0
 40
0.0
 40
0.0
 40
0.0778577507566207
 40
0.2077894243363557
 40
0.3763732101337712
 40
0.6537342555677257
 40
0.904726629258651
 40
1.0
 40
1.0
 40
1.0
 40
1.0
 10
221.832707367892
 20
617.9176107713685
 30
0.0
 10
221.8240280291636
 20
617.9714794496406
 30
0.0
 10
221.8008643135349
 20
618.115246018019
 30
0.0
 10
221.704575009361
 20
618.3666759108602
 30
0.0
 10
221.4873274605647
 20
618.7161113780109
 30
0.0
 10
221.0959512020118
 20
619.0292626923678
 30
0.0
 10
220.6669602842918
 20
619.1987526832594
 30
0.0
 10
220.4214926379478
 20
619.1769471327677
 30
0.0
 10
220.3539533839176
 20
619.170947439383
 30
0.0
  0
LINE
  5
98
330
1F
100
AcDbEntity
  8
0
  6
CONTINUOUS
 62
     7
100
AcDbLine
 10
220.354005538
 20
619.1722587416
 30
0.0
 11
219.188034378
 21
619.1722587416
 31
0.0
  0
SPLINE
  5
99
330
1F
100
AcDbEntity
  8
0
  6
CONTINUOUS
 62
     7
100
AcDbSpline
210
0.0
220
0.0
230
1.0
 70
     8
 71
     3
 72
    12
 73
     8
 74
     0
 42
0.000000001
 43
0.00000001
 40
0.0
 40
0.0
 40
0.0
 40
0.0
 40
0.2859225519300688
 40
0.538306153720495
 40
0.7476758832806032
 40
0.9247441663610468
 40
1.0
 40
1.0
 40
1.0
 40
1.0
 10
219.1900236830661
 20
619.154533810328
 30
0.0
 10
218.9612159491787
 20
619.1388154803623
 30
0.0
 10
218.5304398164847
 20
619.1092225934439
 30
0.0
 10
217.9999818749264
 20
618.808679470748
 30
0.0
 10
217.6363809591588
 20
618.4571624697157
 30
0.0
 10
217.4280904086773
 20
618.1486241996249
 30
0.0
 10
217.3601223299141
 20
617.9704238628099
 30
0.0
 10
217.3398508057544
 20
617.9172754952416
 30
0.0
  0
SPLINE
  5
9A
330
1F
100
AcDbEntity
  8
0
  6
CONTINUOUS
 62
     7
100
AcDbSpline
210
0.0
220
0.0
230
1.0
 70
     8
 71
     3
 72
     9
 73
     5
 74
     0
 42
0.000000001
 43
0.00000001
 40
0.0
 40
0.0
 40
0.0
 40
0.0
 40
0.4995826128732801
 40
1.0
 40
1.0
 40
1.0
 40
1.0
 10
223.4923092946956
 20
607.9643727013573
 30
0.0
 10
223.2138812343765
 20
609.6327869495839
 30
0.0
 10
222.6565598762175
 20
612.9724032717593
 30
0.0
 10
222.1006399268994
 20
616.3138313418941
 30
0.0
 10
221.8224479184101
 20
617.9859400460228
 30
0.0
  0
SPLINE
  5
9B
330
1F
100
AcDbEntity
  8
0
  6
CONTINUOUS
 62
     7
100
AcDbSpline
210
0.0
220
0.0
230
1.0
 70
     8
 71
     3
 72
    18
 73
    14
 74
     0
 42
0.000000001
 43
0.00000001
 40
0.0
 40
0.0
 40
0.0
 40
0.0
 40
0.0286269374048651
 40
0.0854203134516852
 40
0.1267428137838126
 40
0.1543688592846146
 40
0.1996217162606309
 40
0.2644141270283184
 40
0.3489982077867507
 40
0.477022668248178
 40
0.6343670804217038
 40
0.8212376958538706
 40
1.0
 40
1.0
 40
1.0
 40
1.0
 10
217.3552139029453
 20
617.9111064145073
 30
0.0
 10
217.2092429726298
 20
617.5671451332685
 30
0.0
 10
216.7736782998868
 20
616.5407943209852
 30
0.0
 10
216.2545443638354
 20
614.9705085820638
 30
0.0
 10
215.7942117194409
 20
613.3963461151062
 30
0.0
 10
215.4282847288106
 20
611.9559615217026
 30
0.0
 10
215.0250023979338
 20
610.1489943395244
 30
0.0
 10
214.5857406214624
 20
607.6023435916817
 30
0.0
 10
214.1645686038708
 20
603.9630120284116
 30
0.0
 10
213.8272204897028
 20
599.1270927685896
 30
0.0
 10
213.5307481794833
 20
592.981929590436
 30
0.0
 10
213.2296815738288
 20
586.2034758423769
 30
0.0
 10
213.0244736245758
 20
581.4838200499688
 30
0.0
 10
212.924145005698
 20
579.1763239273533
 30
0.0
  0
LINE
  5
9C
330
1F
100
AcDbEntity
  8
0
  6
CONTINUOUS
 62
     7
100
AcDbLine
 10
210.0891469345
 20
512.0726399788
 30
0.0
 11
220.5135448203
 21
512.0726399788
 31
0.0
  0
ARC
  5
9D
330
1F
100
AcDbEntity
  8
0
  6
CONTINUOUS
 62
     7
100
AcDbCircle
 10
189.6278456554
 20
559.7726401875
 30
0.0
 40
0.2999999999999829
100
AcDbArc
 50
90.0
 51
180.0
  0
SPLINE
  5
9E
330
1F
100
AcDbEntity
  8
0
  6
CONTINUOUS
 62
     7
100
AcDbSpline
210
0.0
220
0.0
230
1.0
 70
     8
 71
     3
 72
     9
 73
     5
 74
     0
 42
0.000000001
 43
0.00000001
 40
0.0
 40
0.0
 40
0.0
 40
0.0
 40
0.4801864758526646
 40
0.9999999999999999
 40
0.9999999999999999
 40
0.9999999999999999
 40
0.9999999999999999
 10
224.0698186979244
 20
539.9563442649052
 30
0.0
 10
224.0737606181593
 20
542.1620136337533
 30
0.0
 10
224.0819697628002
 20
546.7553736715001
 30
0.0
 10
224.0602825387037
 20
551.2577544783209
 30
0.0
 10
224.0490092263172
 20
553.5981529125676
 30
0.0
  0
SPLINE
  5
9F
330
1F
100
AcDbEntity
  8
0
  6
CONTINUOUS
 62
     7
100
AcDbSpline
210
0.0
220
0.0
230
1.0
 70
     8
 71
     3
 72
    16
 73
    12
 74
     0
 42
0.000000001
 43
0.00000001
 40
0.0
 40
0.0
 40
0.0
 40
0.0
 40
0.0258361741859616
 40
0.2474965443894711
 40
0.4589350385083336
 40
0.600333864829333
 40
0.7248675616495067
 40
0.7814871942882037
 40
0.8470065933273113
 40
0.9434014672532306
 40
1.0
 40
1.0
 40
1.0
 40
1.0
 10
223.9533139691303
 20
580.784602529715
 30
0.0
 10
223.9523940456603
 20
581.0041010583126
 30
0.0
 10
223.9435816774557
 20
583.1067779846816
 30
0.0
 10
223.918886103889
 20
587.0326915853484
 30
0.0
 10
223.8756589911054
 20
591.9398891114105
 30
0.0
 10
223.8195011927918
 20
596.1095661716105
 30
0.0
 10
223.7699638183369
 20
598.9682794053965
 30
0.0
 10
223.7269654921637
 20
601.1532960254088
 30
0.0
 10
223.6868101285613
 20
603.0615868112623
 30
0.0
 10
223.6455581157527
 20
604.9298103755997
 30
0.0
 10
223.6139287202237
 20
606.2200838656274
 30
0.0
 10
223.602227710242
 20
606.697408921431
 30
0.0
  0
SPLINE
  5
A0
330
1F
100
AcDbEntity
  8
0
  6
CONTINUOUS
 62
     7
100
AcDbSpline
210
0.0
220
0.0
230
1.0
 70
     8
 71
     3
 72
    12
 73
     8
 74
     0
 42
0.000000001
 43
0.00000001
 40
0.0
 40
0.0
 40
0.0
 40
0.0
 40
0.1998393348090527
 40
0.4806351057747622
 40
0.7098104412515739
 40
0.9035977065272184
 40
1.0
 40
1.0
 40
1.0
 40
1.0
 10
220.5158843026111
 20
512.0973740437731
 30
0.0
 10
220.631066854842
 20
512.0960898314162
 30
0.0
 10
220.9080932882405
 20
512.0930011624981
 30
0.0
 10
221.289929859212
 20
512.2686336473137
 30
0.0
 10
221.6022531715022
 20
512.5234277223548
 30
0.0
 10
221.7884046695232
 20
512.7608913070394
 30
0.0
 10
221.8547460829293
 20
512.9130229539683
 30
0.0
 10
221.8767850027034
 20
512.9635617801652
 30
0.0
  0
SPLINE
  5
A1
330
1F
100
AcDbEntity
  8
0
  6
CONTINUOUS
 62
     7
100
AcDbSpline
210
0.0
220
0.0
230
1.0
 70
     8
 71
     3
 72
     9
 73
     5
 74
     0
 42
0.000000001
 43
0.00000001
 40
0.0
 40
0.0
 40
0.0
 40
0.0
 40
0.4999999482217912
 40
1.0
 40
1.0
 40
1.0
 40
1.0
 10
221.8469379768322
 20
512.9020311603055
 30
0.0
 10
222.0570965146112
 20
513.3203756945477
 30
0.0
 10
222.4774136336959
 20
514.1570648496768
 30
0.0
 10
222.897730622201
 20
514.993731393134
 30
0.0
 10
223.1078891382167
 20
515.4120647081837
 30
0.0
  0
SPLINE
  5
A2
330
1F
100
AcDbEntity
  8
0
  6
CONTINUOUS
 62
     7
100
AcDbSpline
210
0.0
220
0.0
230
1.0
 70
     8
 71
     3
 72
     9
 73
     5
 74
     0
 42
0.000000001
 43
0.00000001
 40
0.0
 40
0.0
 40
0.0
 40
0.0
 40
0.499845087073176
 40
1.0
 40
1.0
 40
1.0
 40
1.0
 10
223.6021606550167
 20
606.7180544802651
 30
0.0
 10
223.5939705924899
 20
606.938337204028
 30
0.0
 10
223.5775853908775
 20
607.3790391924234
 30
0.0
 10
223.5132708533799
 20
607.8141187644769
 30
0.0
 10
223.4811036214778
 20
608.0317259499535
 30
0.0
  0
ARC
  5
A3
330
1F
100
AcDbEntity
  8
0
  6
CONTINUOUS
 62
     7
100
AcDbCircle
 10
185.3278456554
 20
536.0726401875
 30
0.0
 40
21.64486082191341
100
AcDbArc
 50
279.0468459803
 51
297.9726755833
  0
ARC
  5
A4
330
1F
100
AcDbEntity
  8
0
  6
CONTINUOUS
 62
     7
100
AcDbCircle
 10
185.3278456554
 20
536.0726401875
 30
0.0
 40
21.64486082191341
100
AcDbArc
 50
79.3504477608
 51
80.9531540197
  0
LINE
  5
A5
330
1F
100
AcDbEntity
  8
0
  6
CONTINUOUS
 62
     7
100
AcDbLine
 10
187.1589048133
 20
557.5726409176
 30
0.0
 11
185.3278464005
 21
557.5726409176
 31
0.0
  0
LINE
  5
A6
330
1F
100
AcDbEntity
  8
0
  6
CONTINUOUS
 62
     7
100
AcDbLine
 10
185.3278464005
 20
514.5726394573
 30
0.0
 11
187.1589048133
 21
514.5726394573
 31
0.0
  0
ARC
  5
A7
330
1F
100
AcDbEntity
  8
0
  6
CONTINUOUS
 62
     7
100
AcDbCircle
 10
187.1589064304
 20
524.5726401875
 30
0.0
 40
10.00000000000006
100
AcDbArc
 50
270.0
 51
279.0468459803
  0
ARC
  5
A8
330
1F
100
AcDbEntity
  8
0
  6
CONTINUOUS
 62
     7
100
AcDbCircle
 10
187.1589064304
 20
547.5726401875
 30
0.0
 40
10.00000000000006
100
AcDbArc
 50
80.9531540197
 51
90.0
  0
SPLINE
  5
A9
330
1F
100
AcDbEntity
  8
0
  6
CONTINUOUS
 62
     7
100
AcDbSpline
210
0.0
220
0.0
230
1.0
 70
     8
 71
     3
 72
     9
 73
     5
 74
     0
 42
0.000000001
 43
0.00000001
 40
0.0
 40
0.0
 40
0.0
 40
0.0
 40
0.499297023316877
 40
1.0
 40
1.0
 40
1.0
 40
1.0
 10
223.1003566012333
 20
515.4001195648417
 30
0.0
 10
223.1892667666698
 20
515.6028225324003
 30
0.0
 10
223.3673374566288
 20
516.0087992518527
 30
0.0
 10
223.416689008534
 20
516.4494741071898
 30
0.0
 10
223.4413994774768
 20
516.6701213190064
 30
0.0
  0
SPLINE
  5
AA
330
1F
100
AcDbEntity
  8
0
  6
CONTINUOUS
 62
     7
100
AcDbSpline
210
0.0
220
0.0
230
1.0
 70
     8
 71
     3
 72
    14
 73
    10
 74
     0
 42
0.000000001
 43
0.00000001
 40
0.0
 40
0.0
 40
0.0
 40
0.0
 40
0.1513407612316363
 40
0.3370584388578932
 40
0.4931978729990614
 40
0.6258335320402212
 40
0.7577915639493572
 40
0.9005105232406084
 40
0.9999999999999999
 40
0.9999999999999999
 40
0.9999999999999999
 40
0.9999999999999999
 10
161.1361371651838
 20
505.7141617605194
 30
0.0
 10
161.2904965372308
 20
506.4374345058071
 30
0.0
 10
161.6342778724234
 20
508.0482707432566
 30
0.0
 10
163.2617538203859
 20
509.9125684181791
 30
0.0
 10
165.2332520253715
 20
511.0559939697447
 30
0.0
 10
167.1445037617653
 20
511.6963260242754
 30
0.0
 10
169.1533912013041
 20
512.021449541515
 30
0.0
 10
170.949791035194
 20
512.0983948893302
 30
0.0
 10
171.9283805975823
 20
512.07988005083
 30
0.0
 10
172.3303458020637
 20
512.0722749003872
 30
0.0
  0
SPLINE
  5
AB
330
1F
100
AcDbEntity
  8
0
  6
CONTINUOUS
 62
     7
100
AcDbSpline
210
0.0
220
0.0
230
1.0
 70
     8
 71
     3
 72
    15
 73
    11
 74
     0
 42
0.000000001
 43
0.00000001
 40
0.0
 40
0.0
 40
0.0
 40
0.0
 40
0.127161434018801
 40
0.3401640044855541
 40
0.543615173937209
 40
0.7227171754685705
 40
0.8180462315875908
 40
0.8945481479169
 40
0.961715409563357
 40
1.0
 40
1.0
 40
1.0
 40
1.0
 10
172.0123363957355
 20
560.0810260245308
 30
0.0
 10
171.3694470802841
 20
560.0799226644936
 30
0.0
 10
169.6496819197826
 20
560.0769711141941
 30
0.0
 10
166.837080195709
 20
560.1948218112617
 30
0.0
 10
163.7806859341179
 20
560.528758365982
 30
0.0
 10
161.3806299204628
 20
561.0667668834368
 30
0.0
 10
159.6852777475546
 20
561.6892873593854
 30
0.0
 10
158.5943460762191
 20
562.2490449448278
 30
0.0
 10
157.8047346479499
 20
562.7454944742706
 30
0.0
 10
157.4044865802268
 20
563.1122893386286
 30
0.0
 10
157.2591753975103
 20
563.2454552421078
 30
0.0
  0
ARC
  5
AC
330
1F
100
AcDbEntity
  8
0
  6
CONTINUOUS
 62
     7
100
AcDbCircle
 10
121.6278456554
 20
611.5726401875
 30
0.0
 40
0.2999999999999972
100
AcDbArc
 50
180.0
 51
270.0
  0
ARC
  5
AD
330
1F
100
AcDbEntity
  8
0
  6
CONTINUOUS
 62
     7
100
AcDbCircle
 10
149.0278456554
 20
611.5726401875
 30
0.0
 40
0.2999999999999829
100
AcDbArc
 50
270.0
 51
0.0
  0
LINE
  5
AE
330
1F
100
AcDbEntity
  8
0
  6
CONTINUOUS
 62
     7
100
AcDbLine
 10
149.3278460876
 20
611.5726367304
 30
0.0
 11
149.3278460876
 21
683.4726468393
 31
0.0
  0
LINE
  5
AF
330
1F
100
AcDbEntity
  8
0
  6
CONTINUOUS
 62
     7
100
AcDbLine
 10
121.3278452233
 20
683.4726468393
 30
0.0
 11
121.3278452233
 21
611.5726367304
 31
0.0
  0
LINE
  5
B0
330
1F
100
AcDbEntity
  8
0
  6
CONTINUOUS
 62
     7
100
AcDbLine
 10
148.2278460935
 20
611.0726431677
 30
0.0
 11
148.2278460935
 21
611.2726391026
 31
0.0
  0
LINE
  5
B1
330
1F
100
AcDbEntity
  8
0
  6
CONTINUOUS
 62
     7
100
AcDbLine
 10
122.4278452173
 20
611.2726391026
 30
0.0
 11
122.4278452173
 21
611.0726431677
 31
0.0
  0
SPLINE
  5
B2
330
1F
100
AcDbEntity
  8
0
  6
CONTINUOUS
 62
     7
100
AcDbSpline
210
0.0
220
0.0
230
1.0
 70
     8
 71
     3
 72
    24
 73
    20
 74
     0
 42
0.000000001
 43
0.00000001
 40
0.0
 40
0.0
 40
0.0
 40
0.0
 40
0.0306555196501061
 40
0.0971949661407514
 40
0.1526578465310236
 40
0.2082058063551573
 40
0.2673575920956902
 40
0.326444093950739
 40
0.4157207026765051
 40
0.460855514531522
 40
0.5059636250989514
 40
0.5841572784838122
 40
0.6623524616435759
 40
0.719272030245316
 40
0.7762572641556792
 40
0.8343652267926172
 40
0.8924063817746754
 40
0.955911304817208
 40
1.0
 40
1.0
 40
1.0
 40
1.0
 10
147.0166396648238
 20
721.2468371459946
 30
0.0
 10
147.0275878492536
 20
721.26606134427
 30
0.0
 10
147.0622996540806
 20
721.3270126940362
 30
0.0
 10
146.5737647032166
 20
720.5528731109797
 30
0.0
 10
145.7661500631965
 20
719.5232178234069
 30
0.0
 10
144.7067778362326
 20
718.403633684841
 30
0.0
 10
143.356298839996
 20
717.2936992142929
 30
0.0
 10
141.4085834535657
 20
716.0838735902453
 30
0.0
 10
139.1794195562968
 20
715.2175878123919
 30
0.0
 10
136.883734694449
 20
714.809301381654
 30
0.0
 10
134.6554229850017
 20
714.6961549042694
 30
0.0
 10
131.9974239588337
 20
715.0523061381718
 30
0.0
 10
129.5241505416316
 20
715.965599367752
 30
0.0
 10
127.6540329132259
 20
717.0493738814793
 30
0.0
 10
126.2487816186693
 20
718.1308309728083
 30
0.0
 10
125.1054841142041
 20
719.2722215040098
 30
0.0
 10
124.219873883506
 20
720.3594089310584
 30
0.0
 10
123.6577300238553
 20
721.2203629598984
 30
0.0
 10
123.6212765147674
 20
721.2772360244779
 30
0.0
 10
123.6063389406154
 20
721.3005409309372
 30
0.0
  0
LINE
  5
B3
330
1F
100
AcDbEntity
  8
0
  6
CONTINUOUS
 62
     7
100
AcDbLine
 10
147.0778452531
 20
712.9726395676
 30
0.0
 11
146.3278455958
 21
712.9726395676
 31
0.0
  0
LINE
  5
B4
330
1F
100
AcDbEntity
  8
0
  6
CONTINUOUS
 62
     7
100
AcDbLine
 10
146.3278455958
 20
712.9726395676
 30
0.0
 11
146.3278455958
 21
709.6726433107
 31
0.0
  0
LINE
  5
B5
330
1F
100
AcDbEntity
  8
0
  6
CONTINUOUS
 62
     7
100
AcDbLine
 10
124.327845715
 20
712.9726395676
 30
0.0
 11
124.327845715
 21
709.6726433107
 31
0.0
  0
LINE
  5
B6
330
1F
100
AcDbEntity
  8
0
  6
CONTINUOUS
 62
     7
100
AcDbLine
 10
124.327845715
 20
712.9726395676
 30
0.0
 11
123.5778460578
 21
712.9726395676
 31
0.0
  0
SPLINE
  5
B7
330
1F
100
AcDbEntity
  8
0
  6
CONTINUOUS
 62
     7
100
AcDbSpline
210
0.0
220
0.0
230
1.0
 70
     8
 71
     3
 72
    10
 73
     6
 74
     0
 42
0.000000001
 43
0.00000001
 40
0.0
 40
0.0
 40
0.0
 40
0.0
 40
0.5
 40
0.5
 40
1.0
 40
1.0
 40
1.0
 40
1.0
 10
146.3278456554363
 20
709.6726401874527
 30
0.0
 10
146.3278456554363
 20
709.6193750221345
 30
0.0
 10
146.3057337710523
 20
709.5674088676225
 30
0.0
 10
146.2317288642851
 20
709.4939614498538
 30
0.0
 10
146.1794940120558
 20
709.4726401874527
 30
0.0
 10
146.1278456554363
 20
709.4726401874527
 30
0.0
  0
LINE
  5
B8
330
1F
100
AcDbEntity
  8
0
  6
CONTINUOUS
 62
     7
100
AcDbLine
 10
146.1278459356
 20
709.4726399252
 30
0.0
 11
124.5278453753
 21
709.4726399252
 31
0.0
  0
SPLINE
  5
B9
330
1F
100
AcDbEntity
  8
0
  6
CONTINUOUS
 62
     7
100
AcDbSpline
210
0.0
220
0.0
230
1.0
 70
     8
 71
     3
 72
    10
 73
     6
 74
     0
 42
0.000000001
 43
0.00000001
 40
0.0
 40
0.0
 40
0.0
 40
0.0
 40
0.5
 40
0.5
 40
1.0
 40
1.0
 40
1.0
 40
1.0
 10
124.3278456554363
 20
709.6726401874527
 30
0.0
 10
124.3278456554363
 20
709.6193750221345
 30
0.0
 10
124.3499575398203
 20
709.5674088676225
 30
0.0
 10
124.4239624465876
 20
709.4939614498538
 30
0.0
 10
124.4761972988168
 20
709.4726401874527
 30
0.0
 10
124.5278456554363
 20
709.4726401874527
 30
0.0
  0
ARC
  5
BA
330
1F
100
AcDbEntity
  8
0
  6
CONTINUOUS
 62
     7
100
AcDbCircle
 10
135.3278456554
 20
728.4726401875
 30
0.0
 40
14.00000000000005
100
AcDbArc
 50
327.0647695028
 51
90.0
  0
ARC
  5
BB
330
1F
100
AcDbEntity
  8
0
  6
CONTINUOUS
 62
     7
100
AcDbCircle
 10
135.3278456554
 20
728.4726401875
 30
0.0
 40
14.00000000000004
100
AcDbArc
 50
90.0
 51
212.9352304972
  0
SPLINE
  5
BC
330
1F
100
AcDbEntity
  8
0
  6
CONTINUOUS
 62
     7
100
AcDbSpline
210
0.0
220
0.0
230
1.0
 70
     8
 71
     3
 72
    20
 73
    16
 74
     0
 42
0.000000001
 43
0.00000001
 40
0.0
 40
0.0
 40
0.0
 40
0.0
 40
0.2499999999999988
 40
0.2499999999999988
 40
0.3749999999999984
 40
0.3749999999999984
 40
0.4999999999999981
 40
0.4999999999999981
 40
0.7499999999999974
 40
0.7499999999999974
 40
0.8124999999999978
 40
0.8124999999999978
 40
0.8749999999999981
 40
0.8749999999999981
 40
1.0
 40
1.0
 40
1.0
 40
1.0
 10
212.841106126599
 20
578.5174460176055
 30
0.0
 10
212.9694201624061
 20
581.6570354849496
 30
0.0
 10
213.1015483031863
 20
584.7965946564626
 30
0.0
 10
213.2927072862835
 20
589.5059892793915
 30
0.0
 10
213.3553751670102
 20
591.0757958414346
 30
0.0
 10
213.4860617656624
 20
594.215366463266
 30
0.0
 10
213.5535073450147
 20
595.7851350755536
 30
0.0
 10
213.7985933077252
 20
600.4941013508941
 30
0.0
 10
214.0144338927832
 20
603.6329955857858
 30
0.0
 10
214.7034887615249
 20
607.5532832003335
 30
0.0
 10
214.8617015622445
 20
608.3371786694169
 30
0.0
 10
215.2281303387668
 20
609.9045724271814
 30
0.0
 10
215.4366920636762
 20
610.6880679695415
 30
0.0
 10
216.1326141265125
 20
613.0379966977403
 30
0.0
 10
216.6905609537735
 20
614.6038692077782
 30
0.0
 10
217.3588321798173
 20
616.1688653996821
 30
0.0
  0
LINE
  5
BD
330
1F
100
AcDbEntity
  8
0
  6
CONTINUOUS
 62
     7
100
AcDbLine
 10
193.4129296169
 20
560.0495715359
 30
0.0
 11
193.4354564474
 21
560.0541983464
 31
0.0
  0
SPLINE
  5
BE
330
1F
100
AcDbEntity
  8
0
  6
CONTINUOUS
 62
     7
100
AcDbSpline
210
0.0
220
0.0
230
1.0
 70
     8
 71
     3
 72
     9
 73
     5
 74
     0
 42
0.000000001
 43
0.00000001
 40
0.0
 40
0.0
 40
0.0
 40
0.0
 40
0.2413774610949106
 40
1.0
 40
1.0
 40
1.0
 40
1.0
 10
212.9342032895038
 20
579.1757427820668
 30
0.0
 10
212.9199257608805
 20
579.1582610710301
 30
0.0
 10
212.8607755462809
 20
579.0858362847332
 30
0.0
 10
212.8559598234575
 20
578.8336231957882
 30
0.0
 10
212.8523065075825
 20
578.6422886619076
 30
0.0
  0
ELLIPSE
  5
BF
330
1F
100
AcDbEntity
  8
0
  6
CONTINUOUS
 62
     7
100
AcDbEllipse
 10
189.6549779867
 20
536.0726401875
 30
0.0
 11
-9.979289606214422
 21
23.97613952717597
 31
0.0
210
0.0
220
0.0
230
1.0
 40
0.1072142584
 41
2.155115554166577
 42
3.096997785145576
  0
SPLINE
  5
C0
330
1F
100
AcDbEntity
  8
0
  6
CONTINUOUS
 62
     7
100
AcDbSpline
210
0.0
220
0.0
230
1.0
 70
     8
 71
     3
 72
     8
 73
     4
 74
     0
 42
0.000000001
 43
0.00000001
 40
0.0037356743257563
 40
0.0037356743257563
 40
0.0037356743257563
 40
0.0037356743257563
 40
0.4448358545519832
 40
0.4448358545519832
 40
0.4448358545519832
 40
0.4448358545519832
 10
149.3283467937167
 20
610.7736440821498
 30
0.0
 10
149.3677464165042
 20
598.9996794485508
 30
0.0
 10
151.724534120127
 20
586.5408078618166
 30
0.0
 10
154.3389198950539
 20
569.1058001354236
 30
0.0
  0
SPLINE
  5
C1
330
1F
100
AcDbEntity
  8
0
  6
CONTINUOUS
 62
     7
100
AcDbSpline
210
0.0
220
0.0
230
1.0
 70
     8
 71
     3
 72
     9
 73
     5
 74
     0
 42
0.000000001
 43
0.00000001
 40
0.0
 40
0.0
 40
0.0
 40
0.0
 40
0.0727929267584616
 40
1.0
 40
1.0
 40
1.0
 40
1.0
 10
160.5999747589777
 20
502.0738602349266
 30
0.0
 10
160.6083962523469
 20
502.0737891054879
 30
0.0
 10
160.7240873468568
 20
502.0728119578193
 30
0.0
 10
160.726671343617
 20
502.0727354008782
 30
0.0
 10
160.7290672436903
 20
502.0726644167408
 30
0.0
  0
SPLINE
  5
C2
330
1F
100
AcDbEntity
  8
0
  6
CONTINUOUS
 62
     7
100
AcDbSpline
210
0.0
220
0.0
230
1.0
 70
     8
 71
     3
 72
     8
 73
     4
 74
     0
 42
0.000000001
 43
0.00000001
 40
0.8647923218880705
 40
0.8647923218880705
 40
0.8647923218880705
 40
0.8647923218880705
 40
0.9987986613673525
 40
0.9987986613673525
 40
0.9987986613673525
 40
0.9987986613673525
 10
160.7290474061602
 20
502.0731684840413
 30
0.0
 10
161.1051010192877
 20
492.7161440955354
 30
0.0
 10
161.323934695099
 20
482.5227766987028
 30
0.0
 10
161.3277937413249
 20
471.3727440179822
 30
0.0
  0
SPLINE
  5
C3
330
1F
100
AcDbEntity
  8
0
  6
CONTINUOUS
 62
     7
100
AcDbSpline
210
0.0
220
0.0
230
1.0
 70
     8
 71
     3
 72
     8
 73
     4
 74
     0
 42
0.000000001
 43
0.00000001
 40
0.0037356743261787
 40
0.0037356743261787
 40
0.0037356743261787
 40
0.0037356743261787
 40
0.9987986613677364
 40
0.9987986613677364
 40
0.9987986613677364
 40
0.9987986613677364
 10
109.3278975695477
 20
471.3727440178863
 30
0.0
 10
109.3565528859923
 20
554.1672212643126
 30
0.0
 10
121.2384642398374
 20
584.2131552343824
 30
0.0
 10
121.3273445171557
 20
610.7736440821159
 30
0.0
  0
ARC
  5
C4
330
1F
100
AcDbEntity
  8
0
  6
CONTINUOUS
 62
     7
100
AcDbCircle
 10
161.0277937593
 20
471.3726401875
 30
0.0
 40
0.3000000000000682
100
AcDbArc
 50
270.0
 51
0.0198301708
  0
LINE
  5
C5
330
1F
100
AcDbEntity
  8
0
  6
CONTINUOUS
 62
     7
100
AcDbLine
 10
161.0277945474
 20
471.0726425716
 30
0.0
 11
109.6278967634
 21
471.0726425716
 31
0.0
  0
ARC
  5
C6
330
1F
100
AcDbEntity
  8
0
  6
CONTINUOUS
 62
     7
100
AcDbCircle
 10
109.6278975516
 20
471.3726401875
 30
0.0
 40
0.3000000000000682
100
AcDbArc
 50
179.9801698292
 51
270.0
  0
SPLINE
  5
C7
330
1F
100
AcDbEntity
  8
0
  6
CONTINUOUS
 62
     7
100
AcDbSpline
210
0.0
220
0.0
230
1.0
 70
     8
 71
     3
 72
    68
 73
    64
 74
     0
 42
0.000000001
 43
0.00000001
 40
0.0
 40
0.0
 40
0.0
 40
0.0
 40
0.0140272238431166
 40
0.0278925860443921
 40
0.0416027461288268
 40
0.0691499807343764
 40
0.075951329809294
 40
0.0961672664129595
 40
0.1227268859949351
 40
0.1333452956690959
 40
0.1439049457860897
 40
0.1648678244625164
 40
0.1752825388339087
 40
0.1908309263152912
 40
0.2011545837701029
 40
0.2063009593088213
 40
0.2193157911333216
 40
0.24524085372315
 40
0.2517062486021232
 40
0.2646186943872135
 40
0.2839407028050204
 40
0.2903799343349185
 40
0.303254026003774
 40
0.3157795023129198
 40
0.3218636895750897
 40
0.3340472223961736
 40
0.35841130466216
 40
0.3705911037169601
 40
0.3827674308293004
 40
0.394953013593765
 40
0.4010455689377571
 40
0.4313089679979213
 40
0.44339026259383
 40
0.4494319520994018
 40
0.4675486466215096
 40
0.4916854707893647
 40
0.497716892104928
 40
0.5097783015743711
 40
0.5278657543755794
 40
0.5519679613327952
 40
0.5640132319272709
 40
0.5760580832208679
 40
0.5880988964944377
 40
0.6122454506167875
 40
0.6243512390550267
 40
0.6304038722997912
 40
0.6485563871831361
 40
0.6787926491396367
 40
0.6848376438582012
 40
0.6969276416584357
 40
0.7217922558475479
 40
0.7342221973409744
 40
0.7528656023974669
 40
0.7715100580468304
 40
0.7963734143068911
 40
0.8212357724672753
 40
0.8585691897245162
 40
0.8710288709617304
 40
0.8959743462764521
 40
0.9337754809984966
 40
0.9463994553221554
 40
0.9716881159149698
 40
1.0
 40
1.0
 40
1.0
 40
1.0
 10
154.3386566656046
 20
569.1064282402882
 30
0.0
 10
154.3545957675564
 20
569.002849681871
 30
0.0
 10
154.3862900484516
 20
568.7968877691419
 30
0.0
 10
154.4416822100862
 20
568.4910197783965
 30
0.0
 10
154.5235726735147
 20
568.0874178619438
 30
0.0
 10
154.6075608388215
 20
567.7381480647219
 30
0.0
 10
154.7155544415695
 20
567.3450713629056
 30
0.0
 10
154.8315929793749
 20
566.961890715799
 30
0.0
 10
154.9755044585815
 20
566.5577004756989
 30
0.0
 10
155.109153985703
 20
566.2270195824146
 30
0.0
 10
155.2343619561145
 20
565.9381360241748
 30
0.0
 10
155.3699891705315
 20
565.6555146879211
 30
0.0
 10
155.5344360860508
 20
565.3458697756821
 30
0.0
 10
155.6698451444378
 20
565.110914123697
 30
0.0
 10
155.7926515361114
 20
564.9143633989844
 30
0.0
 10
155.9092976496011
 20
564.7363685092681
 30
0.0
 10
156.0968417406593
 20
564.465550762242
 30
0.0
 10
156.3054104988456
 20
564.1975371462721
 30
0.0
 10
156.5255560267948
 20
563.9404635703436
 30
0.0
 10
156.7197298992408
 20
563.7261652371359
 30
0.0
 10
156.9236033455556
 20
563.5211944078267
 30
0.0
 10
157.1345439388311
 20
563.3241691602251
 30
0.0
 10
157.3127991319676
 20
563.1665924997973
 30
0.0
 10
157.4944842871423
 20
563.0171383559878
 30
0.0
 10
157.6758267539902
 20
562.8755704983633
 30
0.0
 10
157.9316946111836
 20
562.6858315545694
 30
0.0
 10
158.2344658550396
 20
562.4832173242418
 30
0.0
 10
158.5458003051353
 20
562.2945974640214
 30
0.0
 10
158.7832936336593
 20
562.1598981588073
 30
0.0
 10
158.9842428992858
 20
562.0531366499362
 30
0.0
 10
159.3077957284486
 20
561.8893543144285
 30
0.0
 10
159.6369515937562
 20
561.7383284358892
 30
0.0
 10
159.9712501023358
 20
561.6007618118266
 30
0.0
 10
160.2232597801907
 20
561.501800507961
 30
0.0
 10
160.5618519751718
 20
561.3770012510073
 30
0.0
 10
160.9044568922905
 20
561.2638046064433
 30
0.0
 10
161.2061020791252
 20
561.171374077154
 30
0.0
 10
161.4655348132818
 20
561.0954704852859
 30
0.0
 10
161.8567639116048
 20
560.9894787287109
 30
0.0
 10
162.2505200402483
 20
560.8936992483586
 30
0.0
 10
162.6020000569023
 20
560.8156511257761
 30
0.0
 10
162.8662393330955
 20
560.7604975244813
 30
0.0
 10
163.2198411335362
 20
560.6911453369861
 30
0.0
 10
163.5750624047265
 20
560.6278190916845
 30
0.0
 10
163.8870365302492
 20
560.5771952837944
 30
0.0
 10
164.1551196338237
 20
560.5357241017898
 30
0.0
 10
164.5576482030513
 20
560.477400345565
 30
0.0
 10
164.9611105319829
 20
560.4262008722563
 30
0.0
 10
165.3201104916065
 20
560.3848758158989
 30
0.0
 10
165.6394495920579
 20
560.3499507188765
 30
0.0
 10
166.0066363451899
 20
560.3138682249086
 30
0.0
 10
166.4229240524743
 20
560.2771745837052
 30
0.0
 10
166.7931740808609
 20
560.2475100500101
 30
0.0
 10
167.2563250453837
 20
560.2145410718668
 30
0.0
 10
167.7661501085395
 20
560.1831854626571
 30
0.0
 10
168.4156983274169
 20
560.1497587527108
 30
0.0
 10
168.9730040339225
 20
560.1274371884346
 30
0.0
 10
169.5310742414656
 20
560.1095873462826
 30
0.0
 10
170.0927356023404
 20
560.0948575122244
 30
0.0
 10
170.6557333994779
 20
560.0848767035563
 30
0.0
 10
171.2213326775195
 20
560.0780519416038
 30
0.0
 10
171.7160673064919
 20
560.0739097388723
 30
0.0
 10
172.1165047568558
 20
560.0730769411065
 30
0.0
 10
172.3280163888019
 20
560.0726370561399
 30
0.0
  0
LINE
  5
C8
330
1F
100
AcDbEntity
  8
0
  6
CONTINUOUS
 62
     7
100
AcDbLine
 10
172.3278461323
 20
512.0726399788
 30
0.0
 11
172.3278461323
 21
512.1546634206
 31
0.0
  0
SPLINE
  5
C9
330
1F
100
AcDbEntity
  8
0
  6
CONTINUOUS
 62
     7
100
AcDbSpline
210
0.0
220
0.0
230
1.0
 70
     8
 71
     3
 72
     9
 73
     5
 74
     0
 42
0.000000001
 43
0.00000001
 40
0.0
 40
0.0
 40
0.0
 40
0.0
 40
0.5831329253575936
 40
1.0
 40
1.0
 40
1.0
 40
1.0
 10
217.3367290124843
 20
617.9188550183281
 30
0.0
 10
217.3364840482223
 20
617.9234187981311
 30
0.0
 10
217.3360639651652
 20
617.931245109431
 30
0.0
 10
217.3353291498419
 20
617.9228001337357
 30
0.0
 10
217.3350228295276
 20
617.9192797014222
 30
0.0
  0
SPLINE
  5
CA
330
1F
100
AcDbEntity
  8
0
  6
CONTINUOUS
 62
     7
100
AcDbSpline
210
0.0
220
0.0
230
1.0
 70
     8
 71
     3
 72
    18
 73
    14
 74
     0
 42
0.000000001
 43
0.00000001
 40
0.0
 40
0.0
 40
0.0
 40
0.0
 40
0.1249999999999999
 40
0.1249999999999999
 40
0.2499999999999999
 40
0.2499999999999999
 40
0.4999999999999997
 40
0.4999999999999997
 40
0.6249999999999998
 40
0.6249999999999998
 40
0.7499999999999999
 40
0.7499999999999999
 40
1.0
 40
1.0
 40
1.0
 40
1.0
 10
192.6454426800312
 20
522.2039913257169
 30
0.0
 10
192.3778919261304
 20
522.7327722679353
 30
0.0
 10
192.1235590111726
 20
523.2798500608349
 30
0.0
 10
191.6428733364141
 20
524.4124036595592
 30
0.0
 10
191.4175269294084
 20
524.9958018178162
 30
0.0
 10
190.7926466280898
 20
526.7843255444569
 30
0.0
 10
190.4417969377481
 20
528.0328650834153
 30
0.0
 10
190.0179999866737
 20
529.9961879853253
 30
0.0
 10
189.893395103227
 20
530.6694677842693
 30
0.0
 10
189.6832661158913
 20
532.0213876684045
 30
0.0
 10
189.5971761648022
 20
532.7015650788968
 30
0.0
 10
189.3926438947841
 20
534.7544539248875
 30
0.0
 10
189.3278456554363
 20
536.1394532241634
 30
0.0
 10
189.3278456554363
 20
537.540909364393
 30
0.0
  0
LINE
  5
CB
330
1F
100
AcDbEntity
  8
0
  6
CONTINUOUS
 62
     7
100
AcDbLine
 10
185.0278450475
 20
560.0726403961
 30
0.0
 11
172.327931814
 21
560.0726403961
 31
0.0
  0
LINE
  5
CC
330
1F
100
AcDbEntity
  8
0
  6
CONTINUOUS
 62
     7
100
AcDbLine
 10
172.3278759346
 20
512.0726399788
 30
0.0
 11
185.0278450475
 21
512.0726399788
 31
0.0
  0
LINE
  5
CD
330
1F
100
AcDbEntity
  8
0
  6
CONTINUOUS
 62
     7
100
AcDbLine
 10
185.3278464005
 20
559.7726409057
 30
0.0
 11
185.3278464005
 21
512.3726394692
 31
0.0
  0
ARC
  5
CE
330
1F
100
AcDbEntity
  8
0
  6
CONTINUOUS
 62
     7
100
AcDbCircle
 10
185.0278456554
 20
512.3726401875
 30
0.0
 40
0.3000000000001819
100
AcDbArc
 50
270.0
 51
0.0
  0
ARC
  5
CF
330
1F
100
AcDbEntity
  8
0
  6
CONTINUOUS
 62
     7
100
AcDbCircle
 10
185.0278456554
 20
559.7726401875
 30
0.0
 40
0.3000000000000114
100
AcDbArc
 50
0.0
 51
90.0
  0
LINE
  5
D0
330
1F
100
AcDbEntity
  8
0
  6
CONTINUOUS
 62
     7
100
AcDbLine
 10
189.3278470561
 20
537.5409093419
 30
0.0
 11
189.3278470561
 21
559.7726409057
 31
0.0
  0
LINE
  5
D1
330
1F
100
AcDbEntity
  8
0
  6
CONTINUOUS
 62
     7
100
AcDbLine
 10
221.8542246447
 20
512.9741825828
 30
0.0
 11
221.8547238336
 21
512.9997716019
 31
0.0
  0
ELLIPSE
  5
D2
330
1F
100
AcDbEntity
  8
0
  6
CONTINUOUS
 62
     7
100
AcDbEllipse
 10
189.3798599643
 20
535.9582424981
 30
0.0
 11
-9.981795818192666
 21
23.67539444049737
 31
0.0
210
0.0
220
0.0
230
1.0
 40
0.1081644036
 41
2.144380783580039
 42
3.013594490682296
  0
LINE
  5
D3
330
1F
100
AcDbEntity
  8
0
  6
CONTINUOUS
 62
     7
100
AcDbLine
 10
121.6273427308
 20
611.0726431677
 30
0.0
 11
149.0283485801
 21
611.0726431677
 31
0.0
  0
ARC
  5
D4
330
1F
100
AcDbEntity
  8
0
  6
CONTINUOUS
 62
     7
100
AcDbCircle
 10
149.0283484734
 20
610.7726401875
 30
0.0
 40
0.3000000000000682
100
AcDbArc
 50
0.1917301219
 51
90.0
  0
ARC
  5
D5
330
1F
100
AcDbEntity
  8
0
  6
CONTINUOUS
 62
     7
100
AcDbCircle
 10
121.6273428375
 20
610.7726401875
 30
0.0
 40
0.3000000000000109
100
AcDbArc
 50
90.0
 51
179.8082698781
  0
LINE
  5
D6
330
1F
100
AcDbEntity
  8
0
  6
CONTINUOUS
 62
     7
100
AcDbLine
 10
149.0278447345
 20
611.2726391026
 30
0.0
 11
121.627845645
 21
611.2726391026
 31
0.0
  0
LINE
  5
D7
330
1F
100
AcDbEntity
  8
0
  6
CONTINUOUS
 62
     7
100
AcDbLine
 10
136.8278456685
 20
611.2726391026
 30
0.0
 11
136.8278456685
 21
611.0726431677
 31
0.0
  0
LINE
  5
D8
330
1F
100
AcDbEntity
  8
0
  6
CONTINUOUS
 62
     7
100
AcDbLine
 10
133.8278456424
 20
611.0726431677
 30
0.0
 11
133.8278456424
 21
611.2726391026
 31
0.0
  0
CIRCLE
  5
D9
330
1F
100
AcDbEntity
  8
0
  6
CONTINUOUS
 62
     8
100
AcDbCircle
 10
135.3278456554
 20
728.4726401875
 30
0.0
 40
13.70066030493433
  0
CIRCLE
  5
DA
330
1F
100
AcDbEntity
  8
0
  6
CONTINUOUS
 62
     8
100
AcDbCircle
 10
135.3278456554
 20
728.4726401875
 30
0.0
 40
13.40066103481925
  0
ARC
  5
DB
330
1F
100
AcDbEntity
  8
0
  6
CONTINUOUS
 62
     8
100
AcDbCircle
 10
135.3278456554
 20
728.4726401875
 30
0.0
 40
13.9993367755226
100
AcDbArc
 50
0.0
 51
212.9310400707
  0
ARC
  5
DC
330
1F
100
AcDbEntity
  8
0
  6
CONTINUOUS
 62
     8
100
AcDbCircle
 10
135.3278456554
 20
728.4726401875
 30
0.0
 40
13.99933677552263
100
AcDbArc
 50
327.0689599293
 51
0.0
  0
LINE
  5
DD
330
1F
100
AcDbEntity
  8
0
  6
CONTINUOUS
 62
     8
100
AcDbLine
 10
124.327845715
 20
709.6726433107
 30
0.0
 11
146.3278455958
 21
709.6726433107
 31
0.0
  0
SPLINE
  5
DE
330
1F
100
AcDbEntity
  8
0
  6
CONTINUOUS
 62
     8
100
AcDbSpline
210
0.0
220
0.0
230
1.0
 70
     8
 71
     3
 72
    40
 73
    36
 74
     0
 42
0.000000001
 43
0.00000001
 40
0.0
 40
0.0
 40
0.0
 40
0.0
 40
0.0625000000000014
 40
0.0625000000000014
 40
0.1250000000000029
 40
0.1250000000000029
 40
0.1562500000000039
 40
0.1562500000000039
 40
0.1875000000000049
 40
0.1875000000000049
 40
0.2187500000000058
 40
0.2187500000000058
 40
0.2343750000000064
 40
0.2343750000000064
 40
0.250000000000007
 40
0.250000000000007
 40
0.2812500000000075
 40
0.2812500000000075
 40
0.2968750000000078
 40
0.2968750000000078
 40
0.312500000000008
 40
0.312500000000008
 40
0.3437500000000079
 40
0.3437500000000079
 40
0.3750000000000078
 40
0.3750000000000078
 40
0.4375000000000069
 40
0.4375000000000069
 40
0.500000000000006
 40
0.500000000000006
 40
0.6250000000000046
 40
0.6250000000000046
 40
0.750000000000003
 40
0.750000000000003
 40
1.0
 40
1.0
 40
1.0
 40
1.0
 10
217.3588321798303
 20
616.1688638947669
 30
0.0
 10
217.3588314991256
 20
615.7814914067367
 30
0.0
 10
217.3591560520827
 20
615.3526802970963
 30
0.0
 10
217.3550483089882
 20
614.3848647516809
 30
0.0
 10
217.3513702184401
 20
613.8471853313015
 30
0.0
 10
217.3431717253534
 20
612.8956429808305
 30
0.0
 10
217.3399706323179
 20
612.5560220372429
 30
0.0
 10
217.3321884502116
 20
611.8170403940112
 30
0.0
 10
217.3275983457165
 20
611.4176977725831
 30
0.0
 10
217.316496535857
 20
610.5338622169172
 30
0.0
 10
217.3101215455141
 20
610.0580864282559
 30
0.0
 10
217.2989788450363
 20
609.2794774009867
 30
0.0
 10
217.2949949117534
 20
609.0090116763976
 30
0.0
 10
217.2863128367723
 20
608.4430643608835
 30
0.0
 10
217.2816228510646
 20
608.148633258619
 30
0.0
 10
217.2666498926772
 20
607.2514568640057
 30
0.0
 10
217.2551573454046
 20
606.627104765567
 30
0.0
 10
217.2367580903411
 20
605.6553663946332
 30
0.0
 10
217.2308266337168
 20
605.3239578696974
 30
0.0
 10
217.219757065979
 20
604.665158590525
 30
0.0
 10
217.213723637435
 20
604.3365879492646
 30
0.0
 10
217.1944764684847
 20
603.3529140948053
 30
0.0
 10
217.1817071259335
 20
602.6995514179974
 30
0.0
 10
217.1575946659182
 20
601.3943322338268
 30
0.0
 10
217.1454843384139
 20
600.7421039332801
 30
0.0
 10
217.1086188250132
 20
598.7902538617025
 30
0.0
 10
217.0834547609719
 20
597.4949218888518
 30
0.0
 10
217.0335027440836
 20
594.9081369083929
 30
0.0
 10
217.0085364683151
 20
593.6170246538587
 30
0.0
 10
216.9335084376591
 20
589.7473946372493
 30
0.0
 10
216.8832232654785
 20
587.1725449108869
 30
0.0
 10
216.7827517644604
 20
582.0277983763224
 30
0.0
 10
216.7325160860918
 20
579.45796503863
 30
0.0
 10
216.5815595310371
 20
571.7551216936056
 30
0.0
 10
216.4809384500324
 20
566.6282184797245
 30
0.0
 10
216.3802928169534
 20
561.5068784106719
 30
0.0
  0
SPLINE
  5
DF
330
1F
100
AcDbEntity
  8
0
  6
CONTINUOUS
 62
     8
100
AcDbSpline
210
0.0
220
0.0
230
1.0
 70
     8
 71
     3
 72
    41
 73
    37
 74
     0
 42
0.000000001
 43
0.00000001
 40
0.0
 40
0.0
 40
0.0
 40
0.0
 40
0.0178523799907143
 40
0.0354646862604488
 40
0.0528519907281147
 40
0.0700287425441288
 40
0.08700876142508
 40
0.1038052375266389
 40
0.1204307361593215
 40
0.1368972059011587
 40
0.1532159889012766
 40
0.1693978323911794
 40
0.1854528624848965
 40
0.2013869881227368
 40
0.2171700433995247
 40
0.2327909605366492
 40
0.2482863630172824
 40
0.2637120833247149
 40
0.2791140906561489
 40
0.2944999586704645
 40
0.3347490610293462
 40
0.374289072783308
 40
0.4005991547931243
 40
0.4522635949131573
 40
0.5008512771234256
 40
0.5253995332902245
 40
0.5506299013738561
 40
0.5754729174412466
 40
0.6109966490981115
 40
0.6468994298697915
 40
0.7190422159076291
 40
0.7910895712635554
 40
0.8431267087064552
 40
0.8952841252078182
 40
0.9475734580512667
 40
1.0
 40
1.0
 40
1.0
 40
1.0
 10
212.8411488543771
 20
578.5174580617297
 30
0.0
 10
212.8414824717944
 20
578.473252954942
 30
0.0
 10
212.8421452202371
 20
578.3854371990514
 30
0.0
 10
212.8468350328197
 20
578.2425782459642
 30
0.0
 10
212.8541282513129
 20
578.0931129397761
 30
0.0
 10
212.8641952421353
 20
577.9364987205032
 30
0.0
 10
212.8768763784214
 20
577.7732616762949
 30
0.0
 10
212.8920992720236
 20
577.603628371312
 30
0.0
 10
212.9097694806822
 20
577.4278864841989
 30
0.0
 10
212.9297996221755
 20
577.246290666203
 30
0.0
 10
212.9521018654698
 20
577.0590884245115
 30
0.0
 10
212.9765902447202
 20
576.8665138224243
 30
0.0
 10
213.0031773185102
 20
576.6688073389271
 30
0.0
 10
213.031764253885
 20
576.4663528136801
 30
0.0
 10
213.0622386490345
 20
576.259657753681
 30
0.0
 10
213.0944984332576
 20
576.0490520237128
 30
0.0
 10
213.1285057441129
 20
575.8344554116309
 30
0.0
 10
213.1642870276583
 20
575.6155106911151
 30
0.0
 10
213.2018727475401
 20
575.3919643993077
 30
0.0
 10
213.2624921483821
 20
575.0408133990168
 30
0.0
 10
213.3504494897435
 20
574.5524662113442
 30
0.0
 10
213.4585038550092
 20
573.9812574502708
 30
0.0
 10
213.5870556436364
 20
573.3283853508443
 30
0.0
 10
213.7358497995549
 20
572.5973352295516
 30
0.0
 10
213.8948625515892
 20
571.8480014029005
 30
0.0
 10
214.027026831932
 20
571.2443612635625
 30
0.0
 10
214.129850295363
 20
570.7765956230704
 30
0.0
 10
214.2516626189734
 20
570.2341050258245
 30
0.0
 10
214.393208921163
 20
569.6143586661293
 30
0.0
 10
214.6111978777947
 20
568.6730679469242
 30
0.0
 10
214.8975493793012
 20
567.4655528708853
 30
0.0
 10
215.2250363964827
 20
566.1160924685635
 30
0.0
 10
215.5295134292487
 20
564.8824828892482
 30
0.0
 10
215.8066741629675
 20
563.7725531845472
 30
0.0
 10
216.0901667813579
 20
562.647767913478
 30
0.0
 10
216.2833657591455
 20
561.8875876750567
 30
0.0
 10
216.3800918222523
 20
561.5069995241455
 30
0.0
  0
LWPOLYLINE
  5
E0
330
1F
100
AcDbEntity
  8
0
  6
CONTINUOUS
 62
     8
100
AcDbPolyline
 90
        3
 70
   128
 43
0.0
 10
220.5536065922
 20
530.0200371736
 10
220.5535991416
 20
530.0181745285
 10
220.5535991416
 20
530.0181163208
  0
LINE
  5
E1
330
1F
100
AcDbEntity
  8
0
  6
CONTINUOUS
 62
     8
100
AcDbLine
 10
217.6271600947
 20
530.0181163208
 30
0.0
 11
220.5535991416
 21
530.0181163208
 31
0.0
  0
SPLINE
  5
E2
330
1F
100
AcDbEntity
  8
0
  6
CONTINUOUS
 62
     8
100
AcDbSpline
210
0.0
220
0.0
230
1.0
 70
     8
 71
     3
 72
     8
 73
     4
 74
     0
 42
0.000000001
 43
0.00000001
 40
0.0
 40
0.0
 40
0.0
 40
0.0
 40
1.0
 40
1.0
 40
1.0
 40
1.0
 10
218.2424294847858
 20
561.1337449725685
 30
0.0
 10
218.0379270181134
 20
550.7361235775908
 30
0.0
 10
217.7903215717126
 20
540.3566739561068
 30
0.0
 10
217.6271613112349
 20
530.0181162781495
 30
0.0
  0
SPLINE
  5
E3
330
1F
100
AcDbEntity
  8
0
  6
CONTINUOUS
 62
     8
100
AcDbSpline
210
0.0
220
0.0
230
1.0
 70
     8
 71
     3
 72
    42
 73
    38
 74
     0
 42
0.000000001
 43
0.00000001
 40
0.0
 40
0.0
 40
0.0
 40
0.0
 40
0.2499999999999974
 40
0.2499999999999974
 40
0.3749999999999961
 40
0.3749999999999961
 40
0.4999999999999948
 40
0.4999999999999948
 40
0.5624999999999943
 40
0.5624999999999943
 40
0.5937499999999941
 40
0.5937499999999941
 40
0.6249999999999942
 40
0.6249999999999942
 40
0.6562499999999943
 40
0.6562499999999943
 40
0.6874999999999944
 40
0.6874999999999944
 40
0.7031249999999946
 40
0.7031249999999946
 40
0.7187499999999946
 40
0.7187499999999946
 40
0.7499999999999953
 40
0.7499999999999953
 40
0.7656249999999958
 40
0.7656249999999958
 40
0.7812499999999962
 40
0.7812499999999962
 40
0.8124999999999967
 40
0.8124999999999967
 40
0.8437499999999971
 40
0.8437499999999971
 40
0.8749999999999976
 40
0.8749999999999976
 40
0.9374999999999988
 40
0.9374999999999988
 40
1.0
 40
1.0
 40
1.0
 40
1.0
 10
218.2424294847854
 20
561.1337449725447
 30
0.0
 10
218.3463375185728
 20
566.4167932056532
 30
0.0
 10
218.4502107840167
 20
571.7057402249636
 30
0.0
 10
218.6063066765696
 20
579.6524202470847
 30
0.0
 10
218.6583355812274
 20
582.3036010226871
 30
0.0
 10
218.7623088013223
 20
587.6115914724511
 30
0.0
 10
218.8141738417352
 20
590.2683133679695
 30
0.0
 10
218.8909702731804
 20
594.2622732876418
 30
0.0
 10
218.9164240672875
 20
595.595073144182
 30
0.0
 10
218.9547050224432
 20
597.598547698955
 30
0.0
 10
218.9674991547045
 20
598.2670944269734
 30
0.0
 10
218.9930396279394
 20
599.6065374340621
 30
0.0
 10
219.0057504550958
 20
600.2779151189604
 30
0.0
 10
219.0311748211439
 20
601.6224965672537
 30
0.0
 10
219.0437485263021
 20
602.2952606699242
 30
0.0
 10
219.0691065550282
 20
603.6437527080171
 30
0.0
 10
219.0811759147667
 20
604.3196705694527
 30
0.0
 10
219.0959607581628
 20
605.3383411947311
 30
0.0
 10
219.1011771647771
 20
605.6804354943173
 30
0.0
 10
219.1121007176583
 20
606.352356744767
 30
0.0
 10
219.1175291362466
 20
606.6829916612303
 30
0.0
 10
219.1324935011147
 20
607.6575771732875
 30
0.0
 10
219.1407725311205
 20
608.2840768579753
 30
0.0
 10
219.151099434929
 20
609.1867294022629
 30
0.0
 10
219.1541973332275
 20
609.4806543405983
 30
0.0
 10
219.1597972329205
 20
610.0420917956784
 30
0.0
 10
219.1623249247986
 20
610.311649650203
 30
0.0
 10
219.1694214846285
 20
611.0905914246166
 30
0.0
 10
219.1735521443246
 20
611.5717771154962
 30
0.0
 10
219.1814012926848
 20
612.4655393483227
 30
0.0
 10
219.18505385134
 20
612.873117080192
 30
0.0
 10
219.1919474244382
 20
613.6307491529855
 30
0.0
 10
219.1951806382756
 20
613.9808711122516
 30
0.0
 10
219.2039162947458
 20
614.963429292323
 30
0.0
 10
219.2083177485033
 20
615.5208289222467
 30
0.0
 10
219.2119969723476
 20
616.5192508055799
 30
0.0
 10
219.2104095265048
 20
616.9589614829302
 30
0.0
 10
219.2104058483667
 20
617.3584206388298
 30
0.0
  0
LINE
  5
E4
330
1F
100
AcDbEntity
  8
0
  6
CONTINUOUS
 62
     8
100
AcDbLine
 10
219.2104084716
 20
617.3584223458
 30
0.0
 11
220.3544153199
 21
617.3584223458
 31
0.0
  0
SPLINE
  5
E5
330
1F
100
AcDbEntity
  8
0
  6
CONTINUOUS
 62
     8
100
AcDbSpline
210
0.0
220
0.0
230
1.0
 70
     8
 71
     3
 72
    48
 73
    44
 74
     0
 42
0.000000001
 43
0.00000001
 40
0.0
 40
0.0
 40
0.0
 40
0.0
 40
0.0312499999999998
 40
0.0312499999999998
 40
0.0624999999999997
 40
0.0624999999999997
 40
0.0781249999999996
 40
0.0781249999999996
 40
0.0937499999999996
 40
0.0937499999999996
 40
0.1249999999999995
 40
0.1249999999999995
 40
0.1406249999999994
 40
0.1406249999999994
 40
0.1562499999999994
 40
0.1562499999999994
 40
0.1718749999999994
 40
0.1718749999999994
 40
0.1874999999999993
 40
0.1874999999999993
 40
0.2031249999999993
 40
0.2031249999999993
 40
0.2187499999999993
 40
0.2187499999999993
 40
0.2343749999999993
 40
0.2343749999999993
 40
0.2499999999999992
 40
0.2499999999999992
 40
0.2812499999999992
 40
0.2812499999999992
 40
0.3124999999999991
 40
0.3124999999999991
 40
0.3749999999999991
 40
0.3749999999999991
 40
0.4999999999999992
 40
0.4999999999999992
 40
0.6249999999999994
 40
0.6249999999999994
 40
0.7499999999999996
 40
0.7499999999999996
 40
0.8749999999999998
 40
0.8749999999999998
 40
1.0
 40
1.0
 40
1.0
 40
1.0
 10
220.3544175456565
 20
617.3584206388298
 30
0.0
 10
220.3544175774122
 20
617.0604953605846
 30
0.0
 10
220.3543889089077
 20
616.7399131833832
 30
0.0
 10
220.3542667868022
 20
616.038720336936
 30
0.0
 10
220.3541451625885
 20
615.6583247366073
 30
0.0
 10
220.3539850706782
 20
615.024881456427
 30
0.0
 10
220.3539565525888
 20
614.8031701884563
 30
0.0
 10
220.3538727322279
 20
614.3339471920134
 30
0.0
 10
220.3538141031738
 20
614.0863691419173
 30
0.0
 10
220.3538530333451
 20
613.3031219416758
 30
0.0
 10
220.3540597244586
 20
612.7264545849356
 30
0.0
 10
220.3554645025721
 20
611.7333269582754
 30
0.0
 10
220.3561942251069
 20
611.3812218909673
 30
0.0
 10
220.358531244341
 20
610.6390880417991
 30
0.0
 10
220.3601179068565
 20
610.2475883275081
 30
0.0
 10
220.3648418080628
 20
609.4159478974161
 30
0.0
 10
220.3680063221012
 20
608.9712231616321
 30
0.0
 10
220.3763984904942
 20
608.0575541824251
 30
0.0
 10
220.3816100997218
 20
607.5870936625416
 30
0.0
 10
220.3941352635113
 20
606.6203214806385
 30
0.0
 10
220.4015342037806
 20
606.1238601095689
 30
0.0
 10
220.4177316282615
 20
605.108774841335
 30
0.0
 10
220.4260609594883
 20
604.6027258369996
 30
0.0
 10
220.4480309592448
 20
603.593717153674
 30
0.0
 10
220.4613615811207
 20
603.0906257522684
 30
0.0
 10
220.485103097311
 20
602.0857258669636
 30
0.0
 10
220.4948259833222
 20
601.5838980233897
 30
0.0
 10
220.516422718418
 20
600.0791415249824
 30
0.0
 10
220.5227741300468
 20
599.0783038734954
 30
0.0
 10
220.5335958020138
 20
597.0825457553552
 30
0.0
 10
220.5370104784575
 20
596.0867266121152
 30
0.0
 10
220.5469739393467
 20
593.1026717429647
 30
0.0
 10
220.5516201682284
 20
591.1178031611378
 30
0.0
 10
220.5637549116144
 20
585.1696026497358
 30
0.0
 10
220.5697308261864
 20
581.2125675426131
 30
0.0
 10
220.5783821474428
 20
573.3074515633828
 30
0.0
 10
220.5815128952356
 20
569.35997437705
 30
0.0
 10
220.5843116509125
 20
561.4721640601501
 30
0.0
 10
220.5841989648871
 20
557.531889383878
 30
0.0
 10
220.5805521404089
 20
549.6579749285688
 30
0.0
 10
220.5770377908268
 20
545.7243149057123
 30
0.0
 10
220.5671683716466
 20
537.8648452571628
 30
0.0
 10
220.5606570145067
 20
533.9387727087625
 30
0.0
 10
220.5536034177671
 20
530.0200373986594
 30
0.0
  0
ARC
  5
E6
330
1F
100
AcDbEntity
  8
0
  6
CONTINUOUS
 62
     8
100
AcDbCircle
 10
220.3795720799
 20
615.8770170688
 30
0.0
 40
1.481618863693875
100
AcDbArc
 50
10.9065790177
 51
90.9728854516
  0
SPLINE
  5
E7
330
1F
100
AcDbEntity
  8
0
  6
CONTINUOUS
 62
     8
100
AcDbSpline
210
0.0
220
0.0
230
1.0
 70
     8
 71
     3
 72
    50
 73
    46
 74
     0
 42
0.000000001
 43
0.00000001
 40
0.0
 40
0.0
 40
0.0
 40
0.0
 40
0.1250000000000015
 40
0.1250000000000015
 40
0.2500000000000031
 40
0.2500000000000031
 40
0.3750000000000046
 40
0.3750000000000046
 40
0.5000000000000062
 40
0.5000000000000062
 40
0.6250000000000079
 40
0.6250000000000079
 40
0.6875000000000087
 40
0.6875000000000087
 40
0.718750000000009
 40
0.718750000000009
 40
0.7343750000000092
 40
0.7343750000000092
 40
0.7500000000000094
 40
0.7500000000000094
 40
0.7812500000000093
 40
0.7812500000000093
 40
0.7968750000000095
 40
0.7968750000000095
 40
0.8046875000000097
 40
0.8046875000000097
 40
0.8125000000000097
 40
0.8125000000000097
 40
0.8281250000000094
 40
0.8281250000000094
 40
0.8359375000000091
 40
0.8359375000000091
 40
0.8437500000000088
 40
0.8437500000000088
 40
0.8750000000000071
 40
0.8750000000000071
 40
0.9062500000000056
 40
0.9062500000000056
 40
0.9218750000000046
 40
0.9218750000000046
 40
0.9375000000000037
 40
0.9375000000000037
 40
0.9687500000000019
 40
0.9687500000000019
 40
1.0
 40
1.0
 40
1.0
 40
1.0
 10
221.8952860605827
 20
530.226967366781
 30
0.0
 10
221.9022191614048
 20
534.0717499500056
 30
0.0
 10
221.9090424420868
 20
537.9238290244517
 30
0.0
 10
221.9215244508431
 20
545.6359362562871
 30
0.0
 10
221.9274564042824
 20
549.4962309436415
 30
0.0
 10
221.9379319818316
 20
557.2240920502951
 30
0.0
 10
221.9425790154428
 20
561.0917112300873
 30
0.0
 10
221.9503342149725
 20
568.8346906474065
 30
0.0
 10
221.9533923558201
 20
572.7100464604389
 30
0.0
 10
221.9577606487462
 20
580.4708381075135
 30
0.0
 10
221.9590116216617
 20
584.3560359808193
 30
0.0
 10
221.9585824538603
 20
590.1951194571152
 30
0.0
 10
221.9581980083665
 20
592.1434893586543
 30
0.0
 10
221.9560199698373
 20
595.071924573434
 30
0.0
 10
221.9548245630515
 20
596.0489447995361
 30
0.0
 10
221.95304717965
 20
597.5173498190669
 30
0.0
 10
221.9524278645486
 20
598.0073494417848
 30
0.0
 10
221.9503223615978
 20
598.9886240945876
 30
0.0
 10
221.9486736055411
 20
599.479714394305
 30
0.0
 10
221.943654507358
 20
600.9572220800343
 30
0.0
 10
221.9386814049309
 20
601.9465916658055
 30
0.0
 10
221.9120843880094
 20
603.4297071258923
 30
0.0
 10
221.9008247939903
 20
603.9243118771705
 30
0.0
 10
221.8878177448328
 20
604.6672870625508
 30
0.0
 10
221.8841309837075
 20
604.9151300821147
 30
0.0
 10
221.8773154265001
 20
605.4111676313481
 30
0.0
 10
221.8739861594865
 20
605.6598888617481
 30
0.0
 10
221.8643058075849
 20
606.3932775160115
 30
0.0
 10
221.8584458523596
 20
606.8690315319765
 30
0.0
 10
221.851340339805
 20
607.5598494058963
 30
0.0
 10
221.8491966103824
 20
607.7864058222412
 30
0.0
 10
221.8454581436237
 20
608.2318397327506
 30
0.0
 10
221.8438543591695
 20
608.4518062188926
 30
0.0
 10
221.8370948248403
 20
609.5174569121527
 30
0.0
 10
221.8353526464453
 20
610.2584789042029
 30
0.0
 10
221.8336205208982
 20
611.5903614771524
 30
0.0
 10
221.8336086419638
 20
612.1630802330989
 30
0.0
 10
221.8336528909948
 20
612.9386444442536
 30
0.0
 10
221.8337475417325
 20
613.1831703639377
 30
0.0
 10
221.833884525389
 20
613.6463181495368
 30
0.0
 10
221.8339313743058
 20
613.8647721391767
 30
0.0
 10
221.8341245202056
 20
614.4883374511847
 30
0.0
 10
221.8342636473125
 20
614.8620012193633
 30
0.0
 10
221.8343994322886
 20
615.5504720791769
 30
0.0
 10
221.8344308484702
 20
615.8650239231474
 30
0.0
 10
221.8344308167106
 20
616.1573503115571
 30
0.0
  0
ARC
  5
E8
330
1F
100
AcDbEntity
  8
0
  6
CONTINUOUS
 62
     8
100
AcDbCircle
 10
220.7126571216
 20
533.4417994637
 30
0.0
 40
3.425456792955507
100
AcDbArc
 50
267.3386902074
 51
290.1968563129
  0
SPLINE
  5
E9
330
1F
100
AcDbEntity
  8
0
  6
CONTINUOUS
 62
     8
100
AcDbSpline
210
0.0
220
0.0
230
1.0
 70
     8
 71
     3
 72
    11
 73
     7
 74
     0
 42
0.000000001
 43
0.00000001
 40
0.0
 40
0.0
 40
0.0
 40
0.0
 40
0.0596830093198362
 40
0.1193660202402441
 40
0.1790490311606521
 40
0.23873204208106
 40
0.23873204208106
 40
0.23873204208106
 40
0.23873204208106
 10
217.6852374827557
 20
561.1569449862978
 30
0.0
 10
217.7310510155332
 20
561.1530505189169
 30
0.0
 10
217.8231342801498
 20
561.1462447957263
 30
0.0
 10
217.9623197306962
 20
561.1389946727138
 30
0.0
 10
218.102207603967
 20
561.1346862638039
 30
0.0
 10
218.1956893206508
 20
561.1337449725679
 30
0.0
 10
218.2424294847858
 20
561.1337449725685
 30
0.0
  0
SPLINE
  5
EA
330
1F
100
AcDbEntity
  8
0
  6
CONTINUOUS
 62
     8
100
AcDbSpline
210
0.0
220
0.0
230
1.0
 70
     8
 71
     3
 72
    19
 73
    15
 74
     0
 42
0.000000001
 43
0.00000001
 40
0.0
 40
0.0
 40
0.0
 40
0.0
 40
0.0775444259578145
 40
0.1561353030606713
 40
0.2357746187914035
 40
0.3164642820212906
 40
0.3982061267566569
 40
0.4810019156671504
 40
0.5648533434144982
 40
0.6497620397976981
 40
0.7357295727300326
 40
0.8227574510628447
 40
0.9108471272692178
 40
1.0
 40
1.0
 40
1.0
 40
1.0
 10
217.6852374864422
 20
561.1569449859936
 30
0.0
 10
217.6399808850972
 20
561.1610955207104
 30
0.0
 10
217.5488569509239
 20
561.1694526010276
 30
0.0
 10
217.4156137829421
 20
561.1857349018501
 30
0.0
 10
217.2847795021436
 20
561.2048591016564
 30
0.0
 10
217.1575040317217
 20
561.2270872302956
 30
0.0
 10
217.0346286943883
 20
561.2523167231957
 30
0.0
 10
216.9171119946826
 20
561.2805207217987
 30
0.0
 10
216.8058969683108
 20
561.3116254693314
 30
0.0
 10
216.7019677832866
 20
561.3455461575351
 30
0.0
 10
216.6062104794421
 20
561.3821626213798
 30
0.0
 10
216.5198706214066
 20
561.4213764663075
 30
0.0
 10
216.4427776879145
 20
561.4628998936772
 30
0.0
 10
216.4012042339498
 20
561.4921603982383
 30
0.0
 10
216.3802928169535
 20
561.5068784106729
 30
0.0
  0
ARC
  5
EB
330
1F
100
AcDbEntity
  8
0
  6
CONTINUOUS
 62
     8
100
AcDbCircle
 10
219.1883380878
 20
615.3569897361
 30
0.0
 40
2.001554294315047
100
AcDbArc
 50
89.3682082593
 51
156.0699376326
  0
LWPOLYLINE
  5
EC
330
1F
100
AcDbEntity
  8
0
  6
CONTINUOUS
 62
     8
100
AcDbPolyline
 90
        4
 70
   128
 43
0.0
 10
221.834428452
 20
616.1573515007
 10
222.3561851606
 20
613.1314770052
 10
222.9250295386
 20
609.8325387308
 10
223.4839571938
 20
606.5911263892
  0
SPLINE
  5
ED
330
1F
100
AcDbEntity
  8
0
  6
CONTINUOUS
 62
     8
100
AcDbSpline
210
0.0
220
0.0
230
1.0
 70
     8
 71
     3
 72
    40
 73
    36
 74
     0
 42
0.000000001
 43
0.00000001
 40
0.0
 40
0.0
 40
0.0
 40
0.0
 40
0.2499999999999998
 40
0.2499999999999998
 40
0.4999999999999996
 40
0.4999999999999996
 40
0.6249999999999993
 40
0.6249999999999993
 40
0.6874999999999993
 40
0.6874999999999993
 40
0.7499999999999992
 40
0.7499999999999992
 40
0.7812499999999991
 40
0.7812499999999991
 40
0.7968749999999991
 40
0.7968749999999991
 40
0.8124999999999991
 40
0.8124999999999991
 40
0.828124999999999
 40
0.828124999999999
 40
0.843749999999999
 40
0.843749999999999
 40
0.859374999999999
 40
0.859374999999999
 40
0.874999999999999
 40
0.874999999999999
 40
0.890624999999999
 40
0.890624999999999
 40
0.906249999999999
 40
0.906249999999999
 40
0.9374999999999992
 40
0.9374999999999992
 40
0.9687499999999996
 40
0.9687499999999996
 40
1.0
 40
1.0
 40
1.0
 40
1.0
 10
223.1358447406685
 20
530.8519393169928
 30
0.0
 10
223.1477512205952
 20
537.4596185044
 30
0.0
 10
223.1625766090257
 20
544.089233368311
 30
0.0
 10
223.2021408901315
 20
557.3984348303549
 30
0.0
 10
223.2275885097433
 20
564.078354162963
 30
0.0
 10
223.2708549821892
 20
574.1364330121652
 30
0.0
 10
223.2860451757615
 20
577.4945975535937
 30
0.0
 10
223.3099524612374
 20
582.5494312912263
 30
0.0
 10
223.3181207656857
 20
584.2374271209634
 30
0.0
 10
223.3348133556236
 20
587.6208276707953
 30
0.0
 10
223.3430721970494
 20
589.3140323668192
 30
0.0
 10
223.3569163468434
 20
591.8752305134417
 30
0.0
 10
223.3617000085388
 20
592.7313571994159
 30
0.0
 10
223.3697507432536
 20
594.0277912999568
 30
0.0
 10
223.3726137784828
 20
594.4620474571346
 30
0.0
 10
223.3783658613225
 20
595.3401018698464
 30
0.0
 10
223.3813503633282
 20
595.784828929789
 30
0.0
 10
223.3907324584224
 20
596.6997591588851
 30
0.0
 10
223.3978575283033
 20
597.1718230356937
 30
0.0
 10
223.4173244387151
 20
598.1424262330622
 30
0.0
 10
223.4285230577806
 20
598.6400011266311
 30
0.0
 10
223.4468375522027
 20
599.5971240705463
 30
0.0
 10
223.4545052374646
 20
600.0572752394073
 30
0.0
 10
223.4656533109973
 20
600.9083028673589
 30
0.0
 10
223.4695734010656
 20
601.3057513886614
 30
0.0
 10
223.475205527488
 20
602.0283173343039
 30
0.0
 10
223.47695379854
 20
602.3514424577876
 30
0.0
 10
223.479566613533
 20
602.9470891790816
 30
0.0
 10
223.4803815186735
 20
603.2195291995554
 30
0.0
 10
223.4823434054979
 20
603.9749377631554
 30
0.0
 10
223.4828311665715
 20
604.3937463066862
 30
0.0
 10
223.483479685836
 20
605.1393279775563
 30
0.0
 10
223.4836838155756
 20
605.4686616851967
 30
0.0
 10
223.483903958403
 20
606.0682785719547
 30
0.0
 10
223.4839418052152
 20
606.3396745097474
 30
0.0
 10
223.483943722901
 20
606.5920639614693
 30
0.0
  0
LINE
  5
EE
330
1F
100
AcDbEntity
  8
0
  6
CONTINUOUS
 62
     8
100
AcDbLine
 10
223.1358437166
 20
530.8519392008
 30
0.0
 11
221.8952847943
 21
530.2269672708
 31
0.0
  0
LINE
  5
EF
330
1F
100
AcDbEntity
  8
0
  6
CONTINUOUS
 62
     8
100
AcDbLine
 10
224.0639401898
 20
539.9563577691
 30
0.0
 11
224.0628077016
 21
540.9887255834
 31
0.0
  0
LINE
  5
F0
330
1F
100
AcDbEntity
  8
0
  6
CONTINUOUS
 62
     8
100
AcDbLine
 10
223.9533139691
 20
580.7846025297
 30
0.0
 11
223.6033676491
 21
605.3536594579
 31
0.0
  0
SPLINE
  5
F1
330
1F
100
AcDbEntity
  8
0
  6
CONTINUOUS
 62
     8
100
AcDbSpline
210
0.0
220
0.0
230
1.0
 70
     8
 71
     3
 72
     8
 73
     4
 74
     0
 42
0.000000001
 43
0.00000001
 40
0.0
 40
0.0
 40
0.0
 40
0.0
 40
1.0
 40
1.0
 40
1.0
 40
1.0
 10
223.4839437229025
 20
606.5920641610857
 30
0.0
 10
223.5545492970562
 20
606.1825684124851
 30
0.0
 10
223.5944270329877
 20
605.7684801947188
 30
0.0
 10
223.6032192636663
 20
605.3535593652463
 30
0.0
  0
SPLINE
  5
F2
330
1F
100
AcDbEntity
  8
0
  6
CONTINUOUS
 62
     8
100
AcDbSpline
210
0.0
220
0.0
230
1.0
 70
     8
 71
     3
 72
    10
 73
     6
 74
     0
 42
0.000000001
 43
0.00000001
 40
0.0
 40
0.0
 40
0.0
 40
0.0
 40
0.430367473289327
 40
0.8515567237710643
 40
1.0
 40
1.0
 40
1.0
 40
1.0
 10
193.182442180867
 20
559.0239544132456
 30
0.0
 10
193.1907579546001
 20
559.2736062641952
 30
0.0
 10
193.2072121558938
 20
559.7675857711806
 30
0.0
 10
193.297772421421
 20
560.043504007184
 30
0.0
 10
193.3891238970928
 20
560.0483172340005
 30
0.0
 10
193.4129296169231
 20
560.0495715358958
 30
0.0
  0
SPLINE
  5
F3
330
1F
100
AcDbEntity
  8
0
  6
CONTINUOUS
 62
     8
100
AcDbSpline
210
0.0
220
0.0
230
1.0
 70
     8
 71
     3
 72
    40
 73
    36
 74
     0
 42
0.000000001
 43
0.00000001
 40
0.0
 40
0.0
 40
0.0
 40
0.0
 40
0.0301670947619112
 40
0.0602820879889481
 40
0.090366013364141
 40
0.1204299192755031
 40
0.1504772464089657
 40
0.1805082148444578
 40
0.2105242879594287
 40
0.2405309485025726
 40
0.2705351459740974
 40
0.3005403975756378
 40
0.3305493469665189
 40
0.3605646622782908
 40
0.3905893610263655
 40
0.4206269259735217
 40
0.4506812649966823
 40
0.4807565748180335
 40
0.5108571680953683
 40
0.5409873185146357
 40
0.5711511710338704
 40
0.601352755321579
 40
0.6315961301746834
 40
0.6618856755192393
 40
0.6922265367796341
 40
0.7226252144455587
 40
0.753089481440761
 40
0.7836257424906831
 40
0.8142408006852379
 40
0.8449424747556498
 40
0.8757383018896158
 40
0.9066343872691515
 40
0.9376351907930888
 40
0.9687483217881553
 40
1.0
 40
1.0
 40
1.0
 40
1.0
 10
213.9608362796205
 20
530.2362527291915
 30
0.0
 10
214.0009446537281
 20
530.5463366656029
 30
0.0
 10
214.081092130843
 20
531.1659689930192
 30
0.0
 10
214.1991637748247
 20
532.0973167057648
 30
0.0
 10
214.3144696958648
 20
533.0291420205984
 30
0.0
 10
214.4266936332251
 20
533.9618533246264
 30
0.0
 10
214.535937224117
 20
534.8954365626802
 30
0.0
 10
214.6424094348628
 20
535.8298647770139
 30
0.0
 10
214.7462501451714
 20
536.7651131214261
 30
0.0
 10
214.8473515321858
 20
537.701214460223
 30
0.0
 10
214.9454860716545
 20
538.638216447145
 30
0.0
 10
215.040693547907
 20
539.576166752109
 30
0.0
 10
215.1329959954383
 20
540.5150715401638
 30
0.0
 10
215.2224167596929
 20
541.4549357110221
 30
0.0
 10
215.3089573924634
 20
542.3957740927337
 30
0.0
 10
215.3925975062849
 20
543.3376150072328
 30
0.0
 10
215.4732980305569
 20
544.2804993276246
 30
0.0
 10
215.5510097501452
 20
545.2244770250227
 30
0.0
 10
215.6256830861456
 20
546.1696026940471
 30
0.0
 10
215.6972769179212
 20
547.1159315744113
 30
0.0
 10
215.7657642160502
 20
548.0635173179447
 30
0.0
 10
215.8311329106257
 20
549.0124124712424
 30
0.0
 10
215.8933808176854
 20
549.9626722853727
 30
0.0
 10
215.9525045301426
 20
550.9143622033904
 30
0.0
 10
216.0084809240054
 20
551.8675687098016
 30
0.0
 10
216.0612469214199
 20
552.8224057242371
 30
0.0
 10
216.1106572129705
 20
553.7789844986894
 30
0.0
 10
216.1567098722239
 20
554.7374344117467
 30
0.0
 10
216.1993836451109
 20
555.6978785992742
 30
0.0
 10
216.2385962399763
 20
556.6604373931655
 30
0.0
 10
216.2742432288192
 20
557.6252105572701
 30
0.0
 10
216.3063471939703
 20
558.5922833701944
 30
0.0
 10
216.3348417163093
 20
559.5616958351377
 30
0.0
 10
216.3603512696354
 20
560.5339029353366
 30
0.0
 10
216.3735009315114
 20
561.1820992709006
 30
0.0
 10
216.3800903688362
 20
561.5069174424744
 30
0.0
  0
SPLINE
  5
F4
330
1F
100
AcDbEntity
  8
0
  6
CONTINUOUS
 62
     8
100
AcDbSpline
210
0.0
220
0.0
230
1.0
 70
     8
 71
     3
 72
    16
 73
    12
 74
     0
 42
0.000000001
 43
0.00000001
 40
0.0
 40
0.0
 40
0.0
 40
0.0
 40
0.0596830109204079
 40
0.1193660218408159
 40
0.1790490327612238
 40
0.2387320436816318
 40
0.2387320436816318
 40
0.4290490327612238
 40
0.619366021840816
 40
0.8096830109204078
 40
0.9999569456432212
 40
0.9999569456432212
 40
0.9999569456432212
 40
0.9999569456432212
 10
217.6271613112349
 20
530.0181162781495
 30
0.0
 10
217.5525318309438
 20
530.0181162781495
 30
0.0
 10
217.4032625423251
 20
530.018619807299
 30
0.0
 10
217.1799341024037
 20
530.020898318598
 30
0.0
 10
216.9577730029206
 20
530.0246958731396
 30
0.0
 10
216.8108189399802
 20
530.0282271208803
 30
0.0
 10
216.5046085141901
 20
530.036645482432
 30
0.0
 10
216.0392969055954
 20
530.0545900541706
 30
0.0
 10
215.3438617583233
 20
530.0974554908846
 30
0.0
 10
214.6508878975045
 20
530.1568468829716
 30
0.0
 10
214.190481326705
 20
530.2078519718832
 30
0.0
 10
213.9606905894463
 20
530.2363035654288
 30
0.0
  0
SPLINE
  5
F5
330
1F
100
AcDbEntity
  8
0
  6
CONTINUOUS
 62
     8
100
AcDbSpline
210
0.0
220
0.0
230
1.0
 70
     8
 71
     3
 72
    67
 73
    63
 74
     0
 42
0.000000001
 43
0.00000001
 40
0.0
 40
0.0
 40
0.0
 40
0.0
 40
0.010936808221953
 40
0.0217597603574048
 40
0.0324639966148995
 40
0.0430499449508698
 40
0.0560110577401852
 40
0.067964191875829
 40
0.0746640243152495
 40
0.094528561495768
 40
0.1140711665876932
 40
0.1205200143631706
 40
0.1346771625993892
 40
0.1625805644195516
 40
0.1694801944566559
 40
0.1841413668776478
 40
0.1996240895841271
 40
0.2073206243216796
 40
0.2302485774122338
 40
0.2461092556152513
 40
0.2543519448960629
 40
0.2707761763213566
 40
0.2952896026902894
 40
0.3034373290095462
 40
0.3281935930431015
 40
0.3653037409096087
 40
0.3715004580291316
 40
0.3901284225658248
 40
0.414475904111152
 40
0.426412397274993
 40
0.4384067751155166
 40
0.4748258967828872
 40
0.4871513447524451
 40
0.4995877487576744
 40
0.516368526235506
 40
0.5334033637405619
 40
0.5507295379564005
 40
0.5683875875960237
 40
0.5792311073049783
 40
0.6013693960628561
 40
0.6187487537360848
 40
0.6248627777269072
 40
0.6627242634868007
 40
0.6836711265601748
 40
0.6943929051641418
 40
0.7236389154488191
 40
0.7508241255922473
 40
0.7592866284266799
 40
0.7923779710689419
 40
0.8084816641960596
 40
0.8162568361623055
 40
0.839597225245493
 40
0.8743952782981799
 40
0.8801398397643821
 40
0.8977309216777822
 40
0.9211413732286479
 40
0.9326745941754796
 40
0.9451523539189992
 40
0.9636656659928525
 40
0.9817397084415836
 40
0.9909079283895774
 40
1.0
 40
1.0
 40
1.0
 40
1.0
 10
193.1822198993361
 20
559.0240891877995
 30
0.0
 10
193.182772487423
 20
558.9733344981017
 30
0.0
 10
193.183871910957
 20
558.8723534931844
 30
0.0
 10
193.187322594063
 20
558.7100101254844
 30
0.0
 10
193.1928862960954
 20
558.5404388577125
 30
0.0
 10
193.2014332497343
 20
558.3491276391118
 30
0.0
 10
193.2133654228768
 20
558.139118342641
 30
0.0
 10
193.2268534133001
 20
557.9411642278704
 30
0.0
 10
193.2458400811461
 20
557.6902301659932
 30
0.0
 10
193.2729318881212
 20
557.3733256250413
 30
0.0
 10
193.3064171644876
 20
557.0343857294594
 30
0.0
 10
193.3396177185362
 20
556.7242422406574
 30
0.0
 10
193.3835436192519
 20
556.3367655770415
 30
0.0
 10
193.4359547695335
 20
555.9197811353364
 30
0.0
 10
193.4960898839454
 20
555.4779259813088
 30
0.0
 10
193.5445207354423
 20
555.1375135723465
 30
0.0
 10
193.5990285245782
 20
554.7765723542116
 30
0.0
 10
193.6703132387617
 20
554.3248065088411
 30
0.0
 10
193.7488431348449
 20
553.8535234764282
 30
0.0
 10
193.8373143299606
 20
553.3576059734733
 30
0.0
 10
193.9186591370089
 20
552.9204285270897
 30
0.0
 10
194.0237523613726
 20
552.3779221209227
 30
0.0
 10
194.1398792782072
 20
551.8174594685131
 30
0.0
 10
194.2869387422918
 20
551.1456992882182
 30
0.0
 10
194.4803704941459
 20
550.3070534372101
 30
0.0
 10
194.6965033465984
 20
549.4592986199302
 30
0.0
 10
194.9128588819469
 20
548.6713440933161
 30
0.0
 10
195.0939779827451
 20
548.0383431285379
 30
0.0
 10
195.3150488825943
 20
547.31889770851
 30
0.0
 10
195.5243837282547
 20
546.6790255481276
 30
0.0
 10
195.7988416543052
 20
545.8738800142992
 30
0.0
 10
196.1021511870661
 20
545.0538560228244
 30
0.0
 10
196.4374969482341
 20
544.2244767544402
 30
0.0
 10
196.6758961015221
 20
543.6606475502817
 30
0.0
 10
196.955801358335
 20
543.0329931408124
 30
0.0
 10
197.2844810685181
 20
542.3407709675618
 30
0.0
 10
197.6393704448352
 20
541.640357298061
 30
0.0
 10
197.9710897306242
 20
541.0282956689409
 30
0.0
 10
198.3552792866434
 20
540.3581770378006
 30
0.0
 10
198.7580643378379
 20
539.6998522262197
 30
0.0
 10
199.1460001150942
 20
539.1149209436873
 30
0.0
 10
199.6862573149077
 20
538.3394545688775
 30
0.0
 10
200.2955181930498
 20
537.5409468959458
 30
0.0
 10
201.0012220628842
 20
536.7287762949898
 30
0.0
 10
201.6444396580637
 20
536.0396750331307
 30
0.0
 10
202.3882407435837
 20
535.3125912031542
 30
0.0
 10
203.1522991811888
 20
534.6604506034163
 30
0.0
 10
203.9897912847584
 20
534.0063077471011
 30
0.0
 10
204.7199772978945
 20
533.4937642577096
 30
0.0
 10
205.4695013578676
 20
533.032777006992
 30
0.0
 10
206.1013767551878
 20
532.6690331924635
 30
0.0
 10
207.0022486879726
 20
532.1949432754046
 30
0.0
 10
207.9058094051405
 20
531.7968367075391
 30
0.0
 10
208.7429285230837
 20
531.473266168319
 30
0.0
 10
209.4229585938319
 20
531.2307910689718
 30
0.0
 10
210.1990167747386
 20
530.9926975335537
 30
0.0
 10
210.9068416136329
 20
530.8034701609887
 30
0.0
 10
211.5456661395916
 20
530.6492609850258
 30
0.0
 10
212.2881224972132
 20
530.4938107234909
 30
0.0
 10
212.9853113814735
 20
530.373072880777
 30
0.0
 10
213.5410707006737
 20
530.290162270978
 30
0.0
 10
213.8211890317741
 20
530.254119273206
 30
0.0
 10
213.9606641281935
 20
530.2361729268539
 30
0.0
  0
SPLINE
  5
F6
330
1F
100
AcDbEntity
  8
0
  6
CONTINUOUS
 62
     8
100
AcDbSpline
210
0.0
220
0.0
230
1.0
 70
     8
 71
     3
 72
    24
 73
    20
 74
     0
 42
0.000000001
 43
0.00000001
 40
0.0
 40
0.0
 40
0.0
 40
0.0
 40
0.0384339751363594
 40
0.1010843184785293
 40
0.1641638319530214
 40
0.2285916894078515
 40
0.2934835069435016
 40
0.3566702809538819
 40
0.4202938357199213
 40
0.4852971482033443
 40
0.5507786023841633
 40
0.6140141354967157
 40
0.677694559680545
 40
0.7427887314931234
 40
0.8083763150209367
 40
0.8709164347283053
 40
0.9339014083505421
 40
0.998301382874634
 40
1.0
 40
1.0
 40
1.0
 40
1.0
 10
213.9605207667301
 20
530.2362218232557
 30
0.0
 10
213.9082568561188
 20
529.8428016922475
 30
0.0
 10
213.7707987408335
 20
528.8080764087555
 30
0.0
 10
213.5377892774995
 20
527.1682725419744
 30
0.0
 10
213.2593664510759
 20
525.3298887429161
 30
0.0
 10
212.9705125608877
 20
523.5479428558734
 30
0.0
 10
212.6773045757418
 20
521.8560664261245
 30
0.0
 10
212.3841886668637
 20
520.2731362698917
 30
0.0
 10
212.0928575675616
 20
518.8008321012283
 30
0.0
 10
211.8032912780459
 20
517.4358261236333
 30
0.0
 10
211.5231158115406
 20
516.2100056492394
 30
0.0
 10
211.2568994052409
 20
515.1352876864534
 30
0.0
 10
211.0063068302948
 20
514.2109970885435
 30
0.0
 10
210.77127971127
 20
513.4342481106908
 30
0.0
 10
210.5599469809108
 20
512.8305693120038
 30
0.0
 10
210.3741899560605
 20
512.3949116907339
 30
0.0
 10
210.2193394619283
 20
512.148568602486
 30
0.0
 10
210.1240079376015
 20
512.0445393686857
 30
0.0
 10
210.0900203553713
 20
512.0741695880372
 30
0.0
 10
210.0891469345043
 20
512.07493103237
 30
0.0
  0
SPLINE
  5
F7
330
1F
100
AcDbEntity
  8
0
  6
CONTINUOUS
 62
     8
100
AcDbSpline
210
0.0
220
0.0
230
1.0
 70
     8
 71
     3
 72
    18
 73
    14
 74
     0
 42
0.000000001
 43
0.00000001
 40
0.0
 40
0.0
 40
0.0
 40
0.0
 40
0.2499999999999999
 40
0.2499999999999999
 40
0.3749999999999999
 40
0.3749999999999999
 40
0.4999999999999999
 40
0.4999999999999999
 40
0.7499999999999998
 40
0.7499999999999998
 40
0.8749999999999999
 40
0.8749999999999999
 40
1.0
 40
1.0
 40
1.0
 40
1.0
 10
189.6278456554363
 20
537.5594950501772
 30
0.0
 10
189.6278456554363
 20
536.1516613582932
 30
0.0
 10
189.6919912134323
 20
534.7600687530648
 30
0.0
 10
189.8946874724267
 20
532.6970079671521
 30
0.0
 10
189.9800227074101
 20
532.0133927003309
 30
0.0
 10
190.1883799948328
 20
530.6545078931644
 30
0.0
 10
190.3119730121092
 20
529.9776460588515
 30
0.0
 10
190.7324264534897
 20
528.0038764049848
 30
0.0
 10
191.0806178934877
 20
526.7486720958274
 30
0.0
 10
191.70101595518
 20
524.9506460359405
 30
0.0
 10
191.9247835825671
 20
524.3641513377696
 30
0.0
 10
192.4021792060894
 20
523.2256358008275
 30
0.0
 10
192.6547942851751
 20
522.675734311811
 30
0.0
 10
192.9205607023468
 20
522.144284569811
 30
0.0
  0
LINE
  5
F8
330
1F
100
AcDbEntity
  8
0
  6
CONTINUOUS
 62
     8
100
AcDbLine
 10
189.6278446839
 20
560.0726403961
 30
0.0
 11
189.6278446839
 21
537.559495048
 31
0.0
  0
ELLIPSE
  5
F9
330
1F
100
AcDbEntity
  8
0
  6
CONTINUOUS
 62
     8
100
AcDbEllipse
 10
189.6549779867
 20
536.0726401875
 30
0.0
 11
-9.979289606214422
 21
23.97613952717597
 31
0.0
210
0.0
220
0.0
230
1.0
 40
0.1072142584
 41
2.145357594013797
 42
2.155115554166577
  0
SPLINE
  5
FA
330
1F
100
AcDbEntity
  8
0
  6
CONTINUOUS
 62
     8
100
AcDbSpline
210
0.0
220
0.0
230
1.0
 70
     8
 71
     3
 72
    37
 73
    33
 74
     0
 42
0.000000001
 43
0.00000001
 40
0.0
 40
0.0
 40
0.0
 40
0.0
 40
0.0338786844431669
 40
0.0661488481801108
 40
0.097146637427909
 40
0.1281750198977449
 40
0.1607218622823986
 40
0.1934481373537535
 40
0.2277750120572902
 40
0.2640097529036429
 40
0.2949188736227194
 40
0.3273827224710015
 40
0.3568493137200571
 40
0.3873346298079803
 40
0.4477750726936454
 40
0.5079942650006669
 40
0.5488878544835137
 40
0.5906563960956546
 40
0.6325823538501648
 40
0.666164293621843
 40
0.6987603760859294
 40
0.7226575398444274
 40
0.7460907826226516
 40
0.7692564345646221
 40
0.8016940559194624
 40
0.8352298810391591
 40
0.8674247971131578
 40
0.8992067418888523
 40
0.930705112938506
 40
0.9611402077982449
 40
0.9807548153498373
 40
0.9999999999999999
 40
0.9999999999999999
 40
0.9999999999999999
 40
0.9999999999999999
 10
154.3388178870628
 20
569.10648054571
 30
0.0
 10
154.2681090839257
 20
569.0863409020177
 30
0.0
 10
154.1300486497444
 20
569.047017821594
 30
0.0
 10
153.0763110393507
 20
568.6924394291094
 30
0.0
 10
151.5482032519934
 20
568.0746794959346
 30
0.0
 10
149.5659631380549
 20
567.0785612619912
 30
0.0
 10
147.2553034777303
 20
565.6058424041497
 30
0.0
 10
144.7615575221612
 20
563.5815041834495
 30
0.0
 10
142.2667196410244
 20
561.0036494909687
 30
0.0
 10
140.0617345495433
 20
558.0708218549257
 30
0.0
 10
138.1914641910079
 20
554.9220787624138
 30
0.0
 10
136.7357833207805
 20
551.8010812767952
 30
0.0
 10
135.5673998015714
 20
548.5655083788162
 30
0.0
 10
134.4072486856007
 20
544.2283894948026
 30
0.0
 10
133.6261943821613
 20
538.6192256214949
 30
0.0
 10
133.7453729194477
 20
532.5697196689765
 30
0.0
 10
134.5563323470841
 20
527.2906871059846
 30
0.0
 10
135.7760147047295
 20
522.7879955455685
 30
0.0
 10
137.4261338388101
 20
518.7064340511622
 30
0.0
 10
139.3705600849442
 20
515.1426720362322
 30
0.0
 10
141.3031808367358
 20
512.3724157564875
 30
0.0
 10
143.2350686687106
 20
510.1182340810822
 30
0.0
 10
145.0809097344568
 20
508.3141270332293
 30
0.0
 10
147.2670185960523
 20
506.5320948602895
 30
0.0
 10
149.8217426711246
 20
504.8917567674505
 30
0.0
 10
152.5672066790714
 20
503.6000232803494
 30
0.0
 10
155.0476953268985
 20
502.7914113722989
 30
0.0
 10
157.1176450635365
 20
502.3509271976053
 30
0.0
 10
158.7341537731372
 20
502.1510037402934
 30
0.0
 10
159.7444594163759
 20
502.0915556053278
 30
0.0
 10
160.3434391093744
 20
502.0739068279228
 30
0.0
 10
160.5150065477598
 20
502.0738756671815
 30
0.0
 10
160.5999747589777
 20
502.0738602349266
 30
0.0
  0
SPLINE
  5
FB
330
1F
100
AcDbEntity
  8
0
  6
CONTINUOUS
 62
     8
100
AcDbSpline
210
0.0
220
0.0
230
1.0
 70
    24
 71
     3
 72
    23
 73
    19
 74
     0
 42
0.000000001
 43
0.00000001
 40
0.0
 40
0.0
 40
0.0
 40
0.0
 40
0.0519606144812331
 40
0.1151623287711147
 40
0.1783650821486433
 40
0.2415678230491325
 40
0.3047705639496217
 40
0.3679733173271503
 40
0.4311760654677713
 40
0.494378817995446
 40
0.5575815705231206
 40
0.6207843186637416
 40
0.6839870720412702
 40
0.7471898129417593
 40
0.8103925538422485
 40
0.8735953072197772
 40
0.9367976564423187
 40
1.0
 40
1.0
 40
1.0
 40
1.0
 10
172.3278461322734
 20
512.154663420628
 30
0.0
 10
172.3278461322734
 20
512.2329343789219
 30
0.0
 10
172.3278461322734
 20
512.4064093449567
 30
0.0
 10
172.3278461322734
 20
513.7731728727243
 30
0.0
 10
172.3278461322734
 20
515.9842967406578
 30
0.0
 10
172.3278461322734
 20
518.9938722502701
 30
0.0
 10
172.3278461322734
 20
522.6526845219707
 30
0.0
 10
172.3278461322734
 20
526.8291182990372
 30
0.0
 10
172.3278461322734
 20
531.3602684625156
 30
0.0
 10
172.3278461322734
 20
536.0726422058375
 30
0.0
 10
172.3278461322734
 20
540.7850038388509
 30
0.0
 10
172.3278461322734
 20
545.3161903332536
 30
0.0
 10
172.3278461322734
 20
549.4924908969309
 30
0.0
 10
172.3278461322734
 20
553.1517996911784
 30
0.0
 10
172.3278461322734
 20
556.1595223239251
 30
0.0
 10
172.3278461322734
 20
558.377568567687
 30
0.0
 10
172.3278461322734
 20
559.8046686373999
 30
0.0
 10
172.3278461322734
 20
559.9833164791813
 30
0.0
 10
172.3278461322734
 20
560.072640396069
 30
0.0
  0
SPLINE
  5
FC
330
1F
100
AcDbEntity
  8
0
  6
CONTINUOUS
 62
     8
100
AcDbSpline
210
0.0
220
0.0
230
1.0
 70
     8
 71
     3
 72
    55
 73
    51
 74
     0
 42
0.000000001
 43
0.00000001
 40
0.0
 40
0.0
 40
0.0
 40
0.0
 40
0.030504795436084
 40
0.0626670649142735
 40
0.0780782199683396
 40
0.0857501190339321
 40
0.1085961164973828
 40
0.1386722141680742
 40
0.1461219945536454
 40
0.1609342450248807
 40
0.1829254483381499
 40
0.2118027360725462
 40
0.2260497994784896
 40
0.2401742022712826
 40
0.2675667421277949
 40
0.2944750495538921
 40
0.3209231006698426
 40
0.3469241859113083
 40
0.4093782886390056
 40
0.4337712526063464
 40
0.4458622739406768
 40
0.5148704234834292
 40
0.5602020382544595
 40
0.5827934264230473
 40
0.6053815702518818
 40
0.6391818294287501
 40
0.6447821607613053
 40
0.6616222247549847
 40
0.6841953323444382
 40
0.6955453628112939
 40
0.7069423265638518
 40
0.718387292713309
 40
0.7404320743952949
 40
0.7571207302470204
 40
0.7683237998819812
 40
0.7739501619204078
 40
0.7966341646360499
 40
0.8139500361142774
 40
0.8198301938257319
 40
0.8316499190966616
 40
0.867653141054722
 40
0.873737899102512
 40
0.8859730672012217
 40
0.9045139054338124
 40
0.9161229933776275
 40
0.933710571703254
 40
0.951497739889581
 40
0.9634755809121125
 40
0.981626320350713
 40
1.0
 40
1.0
 40
1.0
 40
1.0
 10
172.3278318937073
 20
512.0726761009513
 30
0.0
 10
172.1458921362762
 20
512.071836691944
 30
0.0
 10
171.7721269486578
 20
512.0701122647515
 30
0.0
 10
171.3065591630611
 20
512.0583170274218
 30
0.0
 10
170.9772999285937
 20
512.0457338561863
 30
0.0
 10
170.7036498530759
 20
512.033273703718
 30
0.0
 10
170.3427881843117
 20
512.0133691567546
 30
0.0
 10
169.9836434429749
 20
511.9870690253372
 30
0.0
 10
169.6726708358841
 20
511.9598839363321
 30
0.0
 10
169.4099367235496
 20
511.9346408616348
 30
0.0
 10
169.0205781249697
 20
511.8913607919394
 30
0.0
 10
168.6355861883939
 20
511.839888749173
 30
0.0
 10
168.2981540701635
 20
511.7876204898628
 30
0.0
 10
167.9702386488804
 20
511.7319937188547
 30
0.0
 10
167.5694160830006
 20
511.6548709000913
 30
0.0
 10
167.0995316314853
 20
511.5488939040374
 30
0.0
 10
166.6415497066467
 20
511.4289449913119
 30
0.0
 10
165.9854397913876
 20
511.230817579832
 30
0.0
 10
165.3544423838325
 20
510.9919697231379
 30
0.0
 10
164.8218471529983
 20
510.7373430124321
 30
0.0
 10
164.2650396917989
 20
510.4444330757788
 30
0.0
 10
163.6280392920654
 20
510.0331331410001
 30
0.0
 10
163.0133897683701
 20
509.4924061458473
 30
0.0
 10
162.642616454877
 20
509.0995922893791
 30
0.0
 10
162.3411099470504
 20
508.7373237058149
 30
0.0
 10
162.1270662704332
 20
508.4350797463352
 30
0.0
 10
161.947918300884
 20
508.1514964840536
 30
0.0
 10
161.8112924301387
 20
507.9202806191301
 30
0.0
 10
161.6706155797889
 20
507.651978418352
 30
0.0
 10
161.5551755527791
 20
507.4075399905998
 30
0.0
 10
161.4731320658322
 20
507.2208123238728
 30
0.0
 10
161.3719905787399
 20
506.9729098009973
 30
0.0
 10
161.2694669653124
 20
506.691599939494
 30
0.0
 10
161.1790757456528
 20
506.4077569986951
 30
0.0
 10
161.1238056541685
 20
506.2156204267703
 30
0.0
 10
161.062384511183
 20
505.9880950291471
 30
0.0
 10
160.9985965651286
 20
505.723452845865
 30
0.0
 10
160.9439605890313
 20
505.455283932968
 30
0.0
 10
160.9062359838384
 20
505.2498735417477
 30
0.0
 10
160.852936741699
 20
504.9340276855321
 30
0.0
 10
160.8112724536523
 20
504.6150211068758
 30
0.0
 10
160.7785446215518
 20
504.29268385688
 30
0.0
 10
160.7590096264932
 20
504.0736958587186
 30
0.0
 10
160.7414687373603
 20
503.8214857841376
 30
0.0
 10
160.7267613685024
 20
503.5371405469986
 30
0.0
 10
160.71691073861
 20
503.2570717435494
 30
0.0
 10
160.712365467784
 20
502.9746666694132
 30
0.0
 10
160.7123504795566
 20
502.6888807899574
 30
0.0
 10
160.7165817049261
 20
502.3996060636232
 30
0.0
 10
160.7246951759382
 20
502.1819108625559
 30
0.0
 10
160.7287766732199
 20
502.0723988707027
 30
0.0
  0
SPLINE
  5
FD
330
1F
100
AcDbEntity
  8
0
  6
CONTINUOUS
 62
     8
100
AcDbSpline
210
0.0
220
0.0
230
1.0
 70
     8
 71
     3
 72
    10
 73
     6
 74
     0
 42
0.000000001
 43
0.00000001
 40
0.0
 40
0.0
 40
0.0
 40
0.0
 40
0.2101201597194777
 40
0.6028648622986835
 40
1.0
 40
1.0
 40
1.0
 40
1.0
 10
221.8336982951114
 20
617.9177970358834
 30
0.0
 10
221.833705547026
 20
617.8934977444512
 30
0.0
 10
221.8337263538086
 20
617.823779593643
 30
0.0
 10
221.8343794211871
 20
617.2338606669095
 30
0.0
 10
221.8344120479519
 20
616.5175151244873
 30
0.0
 10
221.8344284520099
 20
616.1573515007004
 30
0.0
  0
SPLINE
  5
FE
330
1F
100
AcDbEntity
  8
0
  6
CONTINUOUS
 62
     8
100
AcDbSpline
210
0.0
220
0.0
230
1.0
 70
     8
 71
     3
 72
    10
 73
     6
 74
     0
 42
0.000000001
 43
0.00000001
 40
0.0
 40
0.0
 40
0.0
 40
0.0
 40
0.3928317401847375
 40
0.7889291885935353
 40
1.0
 40
1.0
 40
1.0
 40
1.0
 10
220.3544153199146
 20
617.3584223458275
 30
0.0
 10
220.3544064848206
 20
617.7263169798953
 30
0.0
 10
220.3543887411842
 20
618.4651646478725
 30
0.0
 10
220.3537399489573
 20
619.0736903068097
 30
0.0
 10
220.3539370273315
 20
619.14496913138
 30
0.0
 10
220.3540055379817
 20
619.1697478959069
 30
0.0
  0
SPLINE
  5
FF
330
1F
100
AcDbEntity
  8
0
  6
CONTINUOUS
 62
     8
100
AcDbSpline
210
0.0
220
0.0
230
1.0
 70
     8
 71
     3
 72
    10
 73
     6
 74
     0
 42
0.000000001
 43
0.00000001
 40
0.0
 40
0.0
 40
0.0
 40
0.0
 40
0.1990482301017094
 40
0.5971544674547252
 40
1.0
 40
1.0
 40
1.0
 40
1.0
 10
219.1880343780468
 20
619.1691220471367
 30
0.0
 10
219.1913918224256
 20
619.1482398473707
 30
0.0
 10
219.201464320478
 20
619.0855922223495
 30
0.0
 10
219.2127299043179
 20
618.4878514253538
 30
0.0
 10
219.2111853289506
 20
617.7363808759641
 30
0.0
 10
219.2104084715793
 20
617.3584223458275
 30
0.0
  0
SPLINE
  5
100
330
1F
100
AcDbEntity
  8
0
  6
CONTINUOUS
 62
     8
100
AcDbSpline
210
0.0
220
0.0
230
1.0
 70
     8
 71
     3
 72
    10
 73
     6
 74
     0
 42
0.000000001
 43
0.00000001
 40
0.0
 40
0.0
 40
0.0
 40
0.0
 40
0.4070728185453824
 40
0.8176287682346731
 40
1.0
 40
1.0
 40
1.0
 40
1.0
 10
217.3588348851154
 20
616.1688700983033
 30
0.0
 10
217.3588533271409
 20
616.5295019281153
 30
0.0
 10
217.3588903689918
 20
617.2538513451289
 30
0.0
 10
217.3499867953102
 20
617.8346558432357
 30
0.0
 10
217.3398476028789
 20
617.899049086814
 30
0.0
 10
217.3367290124843
 20
617.9188550183281
 30
0.0
  0
SPLINE
  5
101
330
1F
100
AcDbEntity
  8
0
  6
CONTINUOUS
 62
     8
100
AcDbSpline
210
0.0
220
0.0
230
1.0
 70
     8
 71
     3
 72
    10
 73
     6
 74
     0
 42
0.000000001
 43
0.00000001
 40
0.0
 40
0.0
 40
0.0
 40
0.0
 40
0.5882059247472634
 40
0.9347724116763193
 40
1.0
 40
1.0
 40
1.0
 40
1.0
 10
223.4839422926853
 20
606.5920651623711
 30
0.0
 10
223.4835941853324
 20
606.9903892164159
 30
0.0
 10
223.4830409757572
 20
607.6234027937413
 30
0.0
 10
223.4836602977427
 20
608.0829361932326
 30
0.0
 10
223.4808486308822
 20
607.9999189572271
 30
0.0
 10
223.4804032669017
 20
607.9867691466317
 30
0.0
  0
LWPOLYLINE
  5
102
330
1F
100
AcDbEntity
  8
0
  6
CONTINUOUS
 62
     8
100
AcDbPolyline
 90
        9
 70
   128
 43
0.0
 10
192.9205617235
 20
522.1442845383
 10
192.8707694933
 20
522.1303910682
 10
192.8225940392
 20
522.1226061428
 10
192.7776037083
 20
522.1211840132
 10
192.7372588143
 20
522.1261703143
 10
192.7028706596
 20
522.1374029958
 10
192.6755568311
 20
522.1545169795
 10
192.656203948
 20
522.1769562656
 10
192.6454415843
 20
522.2039916286
  0
ARC
  5
103
330
1F
100
AcDbEntity
  8
0
  6
CONTINUOUS
 62
     8
100
AcDbCircle
 10
189.55313414
 20
536.3349509566
 30
0.0
 40
1.226821053493257
100
AcDbArc
 50
86.5086602905
 51
100.5815508071
  0
SPLINE
  5
104
330
1F
100
AcDbEntity
  8
0
  6
CONTINUOUS
 62
     8
100
AcDbSpline
210
0.0
220
0.0
230
1.0
 70
     8
 71
     3
 72
    16
 73
    12
 74
     0
 42
0.000000001
 43
0.00000001
 40
0.0
 40
0.0
 40
0.0
 40
0.0
 40
0.0714087909561685
 40
0.1434565018997546
 40
0.2698082872823601
 40
0.3998242501305175
 40
0.5261757168414121
 40
0.6561913753039195
 40
0.7825427349793451
 40
0.9125582830327232
 40
1.0
 40
1.0
 40
1.0
 40
1.0
 10
220.5535991415927
 20
530.0181163208291
 30
0.0
 10
220.5523128236363
 20
529.2963954333441
 30
0.0
 10
220.5497286785766
 20
527.8464961635168
 30
0.0
 10
220.5451478805009
 20
525.2293597810749
 30
0.0
 10
220.5394377462249
 20
522.2278275976585
 30
0.0
 10
220.533065478874
 20
519.1233393010851
 30
0.0
 10
220.5273818700458
 20
516.474549084679
 30
0.0
 10
220.5224201687844
 20
514.3970445673385
 30
0.0
 10
220.5179849537095
 20
512.9436560588147
 30
0.0
 10
220.5153304846417
 20
512.1528114768219
 30
0.0
 10
220.5140569294443
 20
512.1460140918472
 30
0.0
 10
220.5135448203037
 20
512.1432807961211
 30
0.0
  0
SPLINE
  5
105
330
1F
100
AcDbEntity
  8
0
  6
CONTINUOUS
 62
     8
100
AcDbSpline
210
0.0
220
0.0
230
1.0
 70
     8
 71
     3
 72
    12
 73
     8
 74
     0
 42
0.000000001
 43
0.00000001
 40
0.0
 40
0.0
 40
0.0
 40
0.0
 40
0.1998431361775084
 40
0.4346733672865271
 40
0.6702493910787655
 40
0.8876023336698905
 40
1.0
 40
1.0
 40
1.0
 40
1.0
 10
223.6032186374615
 20
605.3535626003251
 30
0.0
 10
223.6032107391602
 20
605.4909751834712
 30
0.0
 10
223.6031935597802
 20
605.7898575537449
 30
0.0
 10
223.6030681652219
 20
606.1864457319572
 30
0.0
 10
223.6027286900172
 20
606.498652777851
 30
0.0
 10
223.6024485091831
 20
606.6988809390815
 30
0.0
 10
223.6020337928933
 20
606.6977775636362
 30
0.0
 10
223.6018924341152
 20
606.6974014708504
 30
0.0
  0
LINE
  5
106
330
1F
100
AcDbEntity
  8
0
  6
CONTINUOUS
 62
     8
100
AcDbLine
 10
221.8952847943
 20
530.2249891417
 30
0.0
 11
221.8952847943
 21
530.2269672708
 31
0.0
  0
ARC
  5
107
330
1F
100
AcDbEntity
  8
0
  6
CONTINUOUS
 62
     8
100
AcDbCircle
 10
220.7128185878
 20
533.4397157746
 30
0.0
 40
3.425301979953743
100
AcDbArc
 50
267.3357412764
 51
290.1949311156
  0
SPLINE
  5
108
330
1F
100
AcDbEntity
  8
0
  6
CONTINUOUS
 62
     8
100
AcDbSpline
210
0.0
220
0.0
230
1.0
 70
     8
 71
     3
 72
    15
 73
    11
 74
     0
 42
0.000000001
 43
0.00000001
 40
0.0
 40
0.0
 40
0.0
 40
0.0
 40
0.0596960995808323
 40
0.1917961808747488
 40
0.3238968729658714
 40
0.4560011371553753
 40
0.5881064778125124
 40
0.7202106454830832
 40
0.8523148473050315
 40
1.0
 40
1.0
 40
1.0
 40
1.0
 10
221.8547238335559
 20
512.9997716018662
 30
0.0
 10
221.8550511380196
 20
513.003904911924
 30
0.0
 10
221.8561027267589
 20
513.0171847256645
 30
0.0
 10
221.858815019654
 20
513.748235410557
 30
0.0
 10
221.863156975609
 20
515.1231980090562
 30
0.0
 10
221.8684435206172
 20
517.1428339126909
 30
0.0
 10
221.874158226689
 20
519.6778919366639
 30
0.0
 10
221.8807025144254
 20
522.6937017238992
 30
0.0
 10
221.8877921539334
 20
526.2011391340063
 30
0.0
 10
221.892696214839
 20
528.834817581088
 30
0.0
 10
221.8952847943256
 20
530.2249891416833
 30
0.0
  0
SPLINE
  5
109
330
1F
100
AcDbEntity
  8
0
  6
CONTINUOUS
 62
     8
100
AcDbSpline
210
0.0
220
0.0
230
1.0
 70
     8
 71
     3
 72
    14
 73
    10
 74
     0
 42
0.000000001
 43
0.00000001
 40
0.0
 40
0.0
 40
0.0
 40
0.0
 40
0.145470523288418
 40
0.2909975129912853
 40
0.4357112482931192
 40
0.5813198774705256
 40
0.7260867103568756
 40
0.871572813739213
 40
1.0
 40
1.0
 40
1.0
 40
1.0
 10
223.1358437166164
 20
530.8519392007694
 30
0.0
 10
223.1336126765727
 20
529.6295180813408
 30
0.0
 10
223.129149730476
 20
527.1842013426609
 30
0.0
 10
223.1225716031718
 20
523.8730495346801
 30
0.0
 10
223.1165699787989
 20
520.9717954017485
 30
0.0
 10
223.1109034378185
 20
518.5877469324489
 30
0.0
 10
223.1063787199258
 20
516.8208935970821
 30
0.0
 10
223.1026252233031
 20
515.6903180144863
 30
0.0
 10
223.101121324824
 20
515.5168497372104
 30
0.0
 10
223.100416205878
 20
515.4355172732577
 30
0.0
  0
LINE
  5
10A
330
1F
100
AcDbEntity
  8
0
  6
CONTINUOUS
 62
     8
100
AcDbLine
 10
172.3278461323
 20
512.1187031934
 30
0.0
 11
172.3278461323
 21
512.0726399788
 31
0.0
  0
ARC
  5
10B
330
1F
100
AcDbEntity
  8
0
  6
CONTINUOUS
 62
     7
100
AcDbCircle
 10
307.0183262502
 20
471.3726401875
 30
0.0
 40
0.3000000000000682
100
AcDbArc
 50
179.9801698292
 51
270.0
  0
ARC
  5
10C
330
1F
100
AcDbEntity
  8
0
  6
CONTINUOUS
 62
     7
100
AcDbCircle
 10
358.4182224579
 20
471.3726401875
 30
0.0
 40
0.3000000000000682
100
AcDbArc
 50
270.0
 51
0.0198301708
  0
SPLINE
  5
10D
330
1F
100
AcDbEntity
  8
0
  6
CONTINUOUS
 62
     7
100
AcDbSpline
210
0.0
220
0.0
230
1.0
 70
     8
 71
     3
 72
    12
 73
     8
 74
     0
 42
0.000000001
 43
0.00000001
 40
0.0
 40
0.0
 40
0.0
 40
0.0
 40
0.1805230165627636
 40
0.4324383235684327
 40
0.7076558099151699
 40
0.9414011419255984
 40
1.0
 40
1.0
 40
1.0
 40
1.0
 10
308.6471509030749
 20
524.7833723867044
 30
0.0
 10
308.410160059972
 20
521.5752204833348
 30
0.0
 10
307.8424544851161
 20
513.8901736828693
 30
0.0
 10
307.2434338752184
 20
501.2928643281064
 30
0.0
 10
306.8475547297905
 20
487.7398440471857
 30
0.0
 10
306.7213946644095
 20
477.6263888441172
 30
0.0
 10
306.7231363808406
 20
472.4169989639528
 30
0.0
 10
306.7234854987551
 20
471.3728041121468
 30
0.0
  0
SPLINE
  5
10E
330
1F
100
AcDbEntity
  8
0
  6
CONTINUOUS
 62
     7
100
AcDbSpline
210
0.0
220
0.0
230
1.0
 70
     8
 71
     3
 72
    16
 73
    12
 74
     0
 42
0.000000001
 43
0.00000001
 40
0.0
 40
0.0
 40
0.0
 40
0.0
 40
0.0591771741172653
 40
0.1993523336835274
 40
0.3523074654891731
 40
0.4574728942515153
 40
0.5711662971572348
 40
0.6946789431784612
 40
0.8293110567175034
 40
0.9763847313800412
 40
1.0
 40
1.0
 40
1.0
 40
1.0
 10
318.6685580602576
 20
610.7744113275513
 30
0.0
 10
318.667128670294
 20
609.5129957103937
 30
0.0
 10
318.6623134314922
 20
605.2636182979661
 30
0.0
 10
317.9496243375172
 20
597.7773242787164
 30
0.0
 10
316.8269941165336
 20
589.3659644514985
 30
0.0
 10
315.6243148985246
 20
581.5335591589273
 30
0.0
 10
314.4976782238453
 20
574.3251666237273
 30
0.0
 10
313.3026942814899
 20
566.4915184154231
 30
0.0
 10
312.1017581634185
 20
557.9401512073991
 30
0.0
 10
311.2479988070761
 20
551.48900029713
 30
0.0
 10
310.8559228808035
 20
547.8727056152875
 30
0.0
 10
310.8016781351258
 20
547.3723816418752
 30
0.0
  0
SPLINE
  5
10F
330
1F
100
AcDbEntity
  8
0
  6
CONTINUOUS
 62
     7
100
AcDbSpline
210
0.0
220
0.0
230
1.0
 70
     8
 71
     3
 72
    16
 73
    12
 74
     0
 42
0.000000001
 43
0.00000001
 40
0.0
 40
0.0
 40
0.0
 40
0.0
 40
0.087650909580686
 40
0.2293898677807373
 40
0.3592454013048731
 40
0.5097113184730132
 40
0.6456700610266088
 40
0.7698259038046749
 40
0.8849888822122737
 40
0.9941881088441422
 40
1.0
 40
1.0
 40
1.0
 40
1.0
 10
354.6129416516711
 20
547.4801896804676
 30
0.0
 10
354.4006527020006
 20
549.3327882709065
 30
0.0
 10
353.8450745074424
 20
554.1811959799032
 30
0.0
 10
352.8127813746979
 20
561.7543563310493
 30
0.0
 10
351.5129599757901
 20
570.6387093744091
 30
0.0
 10
350.1462233325751
 20
579.3886938860136
 30
0.0
 10
348.8097849362219
 20
588.0204327436683
 30
0.0
 10
347.7130978944089
 20
595.9296081146005
 30
0.0
 10
346.9636173299338
 20
603.3073882894407
 30
0.0
 10
346.7194052135135
 20
608.2032504329544
 30
0.0
 10
346.7205835921507
 20
610.6500086069562
 30
0.0
 10
346.7206431395103
 20
610.7736513683304
 30
0.0
  0
SPLINE
  5
110
330
1F
100
AcDbEntity
  8
0
  6
CONTINUOUS
 62
     7
100
AcDbSpline
210
0.0
220
0.0
230
1.0
 70
     8
 71
     3
 72
    12
 73
     8
 74
     0
 42
0.000000001
 43
0.00000001
 40
0.0
 40
0.0
 40
0.0
 40
0.0
 40
0.2072324958794467
 40
0.4649045528921983
 40
0.7027619645020095
 40
0.9221267911129692
 40
0.9999999999999999
 40
0.9999999999999999
 40
0.9999999999999999
 40
0.9999999999999999
 10
358.6986910394122
 20
471.3732883998856
 30
0.0
 10
358.6914551203704
 20
475.0665315619652
 30
0.0
 10
358.6752220885161
 20
483.3519385088932
 30
0.0
 10
358.38103630063
 20
495.8740471442524
 30
0.0
 10
357.8537478273608
 20
508.6036349346634
 30
0.0
 10
357.3248748006912
 20
518.1265088080646
 30
0.0
 10
356.8956554277191
 20
523.4063934798365
 30
0.0
 10
356.7832045099427
 20
524.7896671959862
 30
0.0
  0
ARC
  5
111
330
1F
100
AcDbEntity
  8
0
  6
CONTINUOUS
 62
     7
100
AcDbCircle
 10
319.0177715361
 20
610.7726401875
 30
0.0
 40
0.2999999999999545
100
AcDbArc
 50
90.0
 51
179.8082698781
  0
ARC
  5
112
330
1F
100
AcDbEntity
  8
0
  6
CONTINUOUS
 62
     7
100
AcDbCircle
 10
346.418777172
 20
610.7726401875
 30
0.0
 40
0.3000000000000682
100
AcDbArc
 50
0.1917301219
 51
90.0
  0
ARC
  5
113
330
1F
100
AcDbEntity
  8
0
  6
CONTINUOUS
 62
     7
100
AcDbCircle
 10
319.0182743541
 20
611.5726401875
 30
0.0
 40
0.3000000000000114
100
AcDbArc
 50
180.0
 51
270.0
  0
ARC
  5
114
330
1F
100
AcDbEntity
  8
0
  6
CONTINUOUS
 62
     7
100
AcDbCircle
 10
346.4182743541
 20
611.5726401875
 30
0.0
 40
0.3000000000000114
100
AcDbArc
 50
270.0
 51
0.0
  0
LINE
  5
115
330
1F
100
AcDbEntity
  8
0
  6
CONTINUOUS
 62
     7
100
AcDbLine
 10
346.7182747862
 20
611.5726367304
 30
0.0
 11
346.7182747862
 21
683.4726468393
 31
0.0
  0
LINE
  5
116
330
1F
100
AcDbEntity
  8
0
  6
CONTINUOUS
 62
     7
100
AcDbLine
 10
318.7182739219
 20
683.4726468393
 30
0.0
 11
318.7182739219
 21
611.5726367304
 31
0.0
  0
ARC
  5
117
330
1F
100
AcDbEntity
  8
0
  6
CONTINUOUS
 62
     7
100
AcDbCircle
 10
377.7182743541
 20
683.4726401875
 30
0.0
 40
31.0
100
AcDbArc
 50
90.0
 51
180.0
  0
ARC
  5
118
330
1F
100
AcDbEntity
  8
0
  6
CONTINUOUS
 62
     7
100
AcDbCircle
 10
377.7182743541
 20
683.4726401875
 30
0.0
 40
59.0
100
AcDbArc
 50
90.0
 51
180.0
  0
LINE
  5
119
330
1F
100
AcDbEntity
  8
0
  6
CONTINUOUS
 62
     7
100
AcDbLine
 10
438.4182754746
 20
742.472647197
 30
0.0
 11
377.7182761422
 21
742.472647197
 31
0.0
  0
LINE
  5
11A
330
1F
100
AcDbEntity
  8
0
  6
CONTINUOUS
 62
     7
100
AcDbLine
 10
377.7182761422
 20
714.4726351568
 30
0.0
 11
438.4182754746
 21
714.4726351568
 31
0.0
  0
ARC
  5
11B
330
1F
100
AcDbEntity
  8
0
  6
CONTINUOUS
 62
     7
100
AcDbCircle
 10
438.4182743541
 20
742.1726401875
 30
0.0
 40
0.3000000000000682
100
AcDbArc
 50
0.0
 51
90.0
  0
ARC
  5
11C
330
1F
100
AcDbEntity
  8
0
  6
CONTINUOUS
 62
     7
100
AcDbCircle
 10
438.4182743541
 20
714.7726401875
 30
0.0
 40
0.3000000000000682
100
AcDbArc
 50
270.0
 51
0.0
  0
LINE
  5
11D
330
1F
100
AcDbEntity
  8
0
  6
CONTINUOUS
 62
     7
100
AcDbLine
 10
438.7182731024
 20
714.7726402351
 30
0.0
 11
438.7182731024
 21
742.1726421186
 31
0.0
  0
ARC
  5
11E
330
1F
100
AcDbEntity
  8
0
  6
CONTINUOUS
 62
     7
100
AcDbCircle
 10
439.0182743541
 20
714.773302682
 30
0.0
 40
0.3000000000000114
100
AcDbArc
 50
180.0
 51
270.1263875441
  0
ARC
  5
11F
330
1F
100
AcDbEntity
  8
0
  6
CONTINUOUS
 62
     7
100
AcDbCircle
 10
439.0182743541
 20
742.1719776929
 30
0.0
 40
0.3000000000000114
100
AcDbArc
 50
89.8736124559
 51
180.0
  0
LINE
  5
120
330
1F
100
AcDbEntity
  8
0
  6
CONTINUOUS
 62
     7
100
AcDbLine
 10
567.4525413505
 20
714.7566065857
 30
0.0
 11
574.4189385167
 21
714.771984584
 31
0.0
  0
LINE
  5
121
330
1F
100
AcDbEntity
  8
0
  6
CONTINUOUS
 62
     7
100
AcDbLine
 10
439.0189338318
 20
714.4733057091
 30
0.0
 11
544.0001401893
 21
714.7048846552
 31
0.0
  0
LINE
  5
122
330
1F
100
AcDbEntity
  8
0
  6
CONTINUOUS
 62
     7
100
AcDbLine
 10
574.4189385167
 20
742.1732977697
 30
0.0
 11
439.0189338318
 21
742.4719766447
 31
0.0
  0
ARC
  5
123
330
1F
100
AcDbEntity
  8
0
  6
CONTINUOUS
 62
     7
100
AcDbCircle
 10
574.4182743541
 20
741.8733012223
 30
0.0
 40
0.2999999999999878
100
AcDbArc
 50
0.0
 51
89.8736124561
  0
ARC
  5
124
330
1F
100
AcDbEntity
  8
0
  6
CONTINUOUS
 62
     7
100
AcDbCircle
 10
574.4182743541
 20
715.0719791526
 30
0.0
 40
0.2999999999999878
100
AcDbArc
 50
270.1263875439
 51
0.0
  0
LINE
  5
125
330
1F
100
AcDbEntity
  8
0
  6
CONTINUOUS
 62
     7
100
AcDbLine
 10
319.818273916
 20
611.2726391026
 30
0.0
 11
319.818273916
 21
611.0726431677
 31
0.0
  0
LINE
  5
126
330
1F
100
AcDbEntity
  8
0
  6
CONTINUOUS
 62
     7
100
AcDbLine
 10
543.9682815066
 20
714.7320047686
 30
0.0
 11
543.9682815066
 21
709.6726433107
 31
0.0
  0
LINE
  5
127
330
1F
100
AcDbEntity
  8
0
  6
CONTINUOUS
 62
     7
100
AcDbLine
 10
567.4682769767
 20
709.6726433107
 30
0.0
 11
567.4682769767
 21
714.7700921366
 31
0.0
  0
ARC
  5
128
330
1F
100
AcDbEntity
  8
0
  6
CONTINUOUS
 62
     7
100
AcDbCircle
 10
544.1682743541
 20
709.6726401875
 30
0.0
 40
0.2000000000001592
100
AcDbArc
 50
180.0
 51
270.0
  0
ARC
  5
129
330
1F
100
AcDbEntity
  8
0
  6
CONTINUOUS
 62
     7
100
AcDbCircle
 10
567.2682743541
 20
709.6726401875
 30
0.0
 40
0.2000000000000455
100
AcDbArc
 50
270.0
 51
0.0
  0
SPLINE
  5
12A
330
1F
100
AcDbEntity
  8
0
  6
CONTINUOUS
 62
     7
100
AcDbSpline
210
0.0
220
0.0
230
1.0
 70
     8
 71
     3
 72
    31
 73
    27
 74
     0
 42
0.000000001
 43
0.00000001
 40
0.0
 40
0.0
 40
0.0
 40
0.0
 40
0.0491496782552851
 40
0.1074364412180397
 40
0.1524037406929256
 40
0.1874092751975817
 40
0.2296491242317195
 40
0.281992504721666
 40
0.3459344876861123
 40
0.4091882913142351
 40
0.4570137794998059
 40
0.4775808273663567
 40
0.4938848891329988
 40
0.506976484799005
 40
0.5129470562363218
 40
0.5189358744832703
 40
0.5253356816625482
 40
0.5326250762663217
 40
0.5509888938886958
 40
0.5754522602098922
 40
0.6064864155793451
 40
0.6699317988943779
 40
0.7495249815309151
 40
0.8430817716018736
 40
0.9472091469155395
 40
0.9999999999999999
 40
0.9999999999999999
 40
0.9999999999999999
 40
0.9999999999999999
 10
356.8483039579083
 20
524.334259770225
 30
0.0
 10
356.8030261663283
 20
524.8944848702995
 30
0.0
 10
356.7040532947604
 20
526.1190827348147
 30
0.0
 10
356.6062147067851
 20
527.759131297713
 30
0.0
 10
356.5431387706174
 20
529.2853707470407
 30
0.0
 10
356.5083360679676
 20
530.9540053654172
 30
0.0
 10
356.4916220136402
 20
532.1584111463775
 30
0.0
 10
356.4889505536544
 20
533.2522806272123
 30
0.0
 10
356.5000114005657
 20
534.0857265139099
 30
0.0
 10
356.5241040217862
 20
534.7955282336555
 30
0.0
 10
356.5510507315443
 20
535.5698537726876
 30
0.0
 10
356.5562504594805
 20
536.3151426030483
 30
0.0
 10
356.5457103798659
 20
536.9097802425628
 30
0.0
 10
356.5170986866277
 20
537.4913062134491
 30
0.0
 10
356.4804139416855
 20
537.9635044419335
 30
0.0
 10
356.446611890376
 20
538.3175459126671
 30
0.0
 10
356.4049318334713
 20
538.6806661357564
 30
0.0
 10
356.3343065753988
 20
539.2027098586517
 30
0.0
 10
356.2250483586752
 20
539.8486397654386
 30
0.0
 10
356.0754295130958
 20
540.5748312370775
 30
0.0
 10
355.8523627551048
 20
541.5099637739555
 30
0.0
 10
355.5657114069821
 20
542.5675623304659
 30
0.0
 10
355.2455792748912
 20
543.7683863414541
 30
0.0
 10
354.9521716101471
 20
545.1532588247396
 30
0.0
 10
354.7330785071438
 20
546.4695341093402
 30
0.0
 10
354.6232228005662
 20
547.6268940213114
 30
0.0
 10
354.5862648478438
 20
548.0162561604485
 30
0.0
  0
SPLINE
  5
12B
330
1F
100
AcDbEntity
  8
0
  6
CONTINUOUS
 62
     7
100
AcDbSpline
210
0.0
220
0.0
230
1.0
 70
     8
 71
     3
 72
    11
 73
     7
 74
     0
 42
0.000000001
 43
0.00000001
 40
0.0
 40
0.0
 40
0.0
 40
0.0
 40
0.1365311940701945
 40
0.389747341960918
 40
0.6763777536371567
 40
1.0
 40
1.0
 40
1.0
 40
1.0
 10
310.9685525140454
 20
548.751617289494
 30
0.0
 10
310.9547589139295
 20
548.4757688545551
 30
0.0
 10
310.9153831579506
 20
547.6883210113447
 30
0.0
 10
311.0142948760198
 20
546.850567020922
 30
0.0
 10
311.0701188108903
 20
546.191983235231
 30
0.0
 10
310.9889275237123
 20
546.0644914971072
 30
0.0
 10
310.9458710840632
 20
545.9968815291032
 30
0.0
  0
SPLINE
  5
12C
330
1F
100
AcDbEntity
  8
0
  6
CONTINUOUS
 62
     7
100
AcDbSpline
210
0.0
220
0.0
230
1.0
 70
     8
 71
     3
 72
    27
 73
    23
 74
     0
 42
0.000000001
 43
0.00000001
 40
0.0
 40
0.0
 40
0.0
 40
0.0
 40
0.0796218578519198
 40
0.1120472384589194
 40
0.1405350983238678
 40
0.1663502591153047
 40
0.1910378213581959
 40
0.216144705141929
 40
0.2429068472339452
 40
0.304017235318854
 40
0.3768707383033986
 40
0.4584648959858084
 40
0.5300478541769414
 40
0.5889332986859436
 40
0.6363033822731913
 40
0.6731419259374857
 40
0.7004489581255718
 40
0.7407108647358503
 40
0.810848774171034
 40
0.8737774862207676
 40
0.9494530562722155
 40
1.0
 40
1.0
 40
1.0
 40
1.0
 10
310.7677295646359
 20
545.6201783114776
 30
0.0
 10
310.412750688775
 20
544.7464626091124
 30
0.0
 10
309.913209434344
 20
543.5169330014223
 30
0.0
 10
309.4037129479233
 20
541.6282055638877
 30
0.0
 10
309.1417987436812
 20
540.388116720319
 30
0.0
 10
308.9643421214712
 20
539.2402334201896
 30
0.0
 10
308.8581355923745
 20
538.2140303105606
 30
0.0
 10
308.8072220849084
 20
537.3289534633316
 30
0.0
 10
308.7905528191139
 20
536.2942888328486
 30
0.0
 10
308.8352648033128
 20
535.3721566429266
 30
0.0
 10
308.8999252015953
 20
534.7165239151866
 30
0.0
 10
308.9439531293811
 20
534.4128391147896
 30
0.0
 10
308.9713427478344
 20
533.916517344817
 30
0.0
 10
308.9811662814092
 20
533.3405654224779
 30
0.0
 10
308.9801546534564
 20
532.7046906359313
 30
0.0
 10
308.9730363350617
 20
532.0939941036152
 30
0.0
 10
308.9626877913838
 20
531.2250678088304
 30
0.0
 10
308.9399056908363
 20
530.182529243438
 30
0.0
 10
308.8916591132526
 20
528.9497542844472
 30
0.0
 10
308.8052003603041
 20
527.3283008302038
 30
0.0
 10
308.7073767162004
 20
525.7780139127353
 30
0.0
 10
308.6119680729796
 20
524.6157284244338
 30
0.0
 10
308.57376082155
 20
524.1502807209
 30
0.0
  0
SPLINE
  5
12D
330
1F
100
AcDbEntity
  8
0
  6
CONTINUOUS
 62
     7
100
AcDbSpline
210
0.0
220
0.0
230
1.0
 70
     8
 71
     3
 72
     9
 73
     5
 74
     0
 42
0.000000001
 43
0.00000001
 40
0.0
 40
0.0
 40
0.0
 40
0.0
 40
0.4918108625930745
 40
0.9999999999999999
 40
0.9999999999999999
 40
0.9999999999999999
 40
0.9999999999999999
 10
310.6417532852579
 20
545.1530101442441
 30
0.0
 10
310.6165456078772
 20
545.0999626285255
 30
0.0
 10
310.5652907875835
 20
544.9921010098559
 30
0.0
 10
310.5004503250043
 20
544.9031294027902
 30
0.0
 10
310.4674991062571
 20
544.8579149985418
 30
0.0
  0
LINE
  5
12E
330
1F
100
AcDbEntity
  8
0
  6
CONTINUOUS
 62
     7
100
AcDbLine
 10
310.7461396447
 20
545.9287571454
 30
0.0
 11
310.1078260532
 21
544.1205571139
 31
0.0
  0
LINE
  5
12F
330
1F
100
AcDbEntity
  8
0
  6
CONTINUOUS
 62
     7
100
AcDbLine
 10
363.1566658458
 20
559.184410117
 30
0.0
 11
363.5965071461
 21
561.1400441
 31
0.0
  0
LINE
  5
130
330
1F
100
AcDbEntity
  8
0
  6
CONTINUOUS
 62
     7
100
AcDbLine
 10
332.7182743541
 20
471.0726425716
 30
0.0
 11
307.0183254621
 21
471.0726425716
 31
0.0
  0
LINE
  5
131
330
1F
100
AcDbEntity
  8
0
  6
CONTINUOUS
 62
     7
100
AcDbLine
 10
358.4182232461
 20
471.0726425716
 30
0.0
 11
332.7182743541
 21
471.0726425716
 31
0.0
  0
LINE
  5
132
330
1F
100
AcDbEntity
  8
0
  6
CONTINUOUS
 62
     7
100
AcDbLine
 10
308.5877939901
 20
524.1491826916
 30
0.0
 11
308.6372714332
 21
524.784066222
 31
0.0
  0
LINE
  5
133
330
1F
100
AcDbEntity
  8
0
  6
CONTINUOUS
 62
     7
100
AcDbLine
 10
310.8025517157
 20
547.3722857157
 30
0.0
 11
310.9641026548
 21
548.752118341
 31
0.0
  0
LINE
  5
134
330
1F
100
AcDbEntity
  8
0
  6
CONTINUOUS
 62
     7
100
AcDbLine
 10
354.5674186042
 20
548.0141401956
 30
0.0
 11
354.6278279117
 21
547.4819368416
 31
0.0
  0
LINE
  5
135
330
1F
100
AcDbEntity
  8
0
  6
CONTINUOUS
 62
     7
100
AcDbLine
 10
356.7982379189
 20
524.7908555636
 30
0.0
 11
356.8336747429
 21
524.3331263507
 31
0.0
  0
LINE
  5
136
330
1F
100
AcDbEntity
  8
0
  6
CONTINUOUS
 62
     7
100
AcDbLine
 10
319.0177714294
 20
611.0726431677
 30
0.0
 11
332.7182743541
 21
611.0726431677
 31
0.0
  0
LINE
  5
137
330
1F
100
AcDbEntity
  8
0
  6
CONTINUOUS
 62
     7
100
AcDbLine
 10
332.7182743541
 20
611.0726431677
 30
0.0
 11
346.4187772787
 21
611.0726431677
 31
0.0
  0
LINE
  5
138
330
1F
100
AcDbEntity
  8
0
  6
CONTINUOUS
 62
     7
100
AcDbLine
 10
332.7182743541
 20
611.2726391026
 30
0.0
 11
319.0182743436
 21
611.2726391026
 31
0.0
  0
LINE
  5
139
330
1F
100
AcDbEntity
  8
0
  6
CONTINUOUS
 62
     7
100
AcDbLine
 10
346.4182743645
 20
611.2726391026
 30
0.0
 11
332.7182743541
 21
611.2726391026
 31
0.0
  0
SPLINE
  5
13A
330
1F
100
AcDbEntity
  8
0
  6
CONTINUOUS
 62
     7
100
AcDbSpline
210
0.0
220
0.0
230
1.0
 70
     8
 71
     3
 72
    12
 73
     8
 74
     0
 42
0.000000001
 43
0.00000001
 40
0.0
 40
0.0
 40
0.0
 40
0.0
 40
0.2005646471011943
 40
0.4060242063241564
 40
0.7336878871157552
 40
0.8961418707712892
 40
1.0
 40
1.0
 40
1.0
 40
1.0
 10
547.9326460352827
 20
717.8959683248505
 30
0.0
 10
547.4872398422084
 20
717.5590461586929
 30
0.0
 10
546.5855570249787
 20
716.8769790193223
 30
0.0
 10
545.2535081093175
 20
715.7925034211468
 30
0.0
 10
544.3700775610522
 20
715.0483010948966
 30
0.0
 10
543.9910567130655
 20
714.724315410874
 30
0.0
 10
543.9975487700306
 20
714.7298580969643
 30
0.0
 10
544.0000805846144
 20
714.732019669722
 30
0.0
  0
SPLINE
  5
13B
330
1F
100
AcDbEntity
  8
0
  6
CONTINUOUS
 62
     7
100
AcDbSpline
210
0.0
220
0.0
230
1.0
 70
     8
 71
     3
 72
    20
 73
    16
 74
     0
 42
0.000000001
 43
0.00000001
 40
0.0
 40
0.0
 40
0.0
 40
0.0
 40
0.0080591840624969
 40
0.1145655432660001
 40
0.2210739861521075
 40
0.2975517311580286
 40
0.3762254924607483
 40
0.4543864221504849
 40
0.5344222397152574
 40
0.6209213077594207
 40
0.6942766930951776
 40
0.7676095605046003
 40
0.8267029566259039
 40
0.8873394974611526
 40
1.0
 40
1.0
 40
1.0
 40
1.0
 10
567.4525115481306
 20
714.7700921365723
 30
0.0
 10
567.4574755933543
 20
714.7658541560796
 30
0.0
 10
567.5280421089508
 20
714.7056090327852
 30
0.0
 10
567.0924710355436
 20
715.0787235076311
 30
0.0
 10
566.0447823793335
 20
715.9580286501704
 30
0.0
 10
564.6958468797885
 20
717.0440293464374
 30
0.0
 10
563.27815898979
 20
718.1231657432157
 30
0.0
 10
561.6375460985784
 20
719.2598871657497
 30
0.0
 10
559.7364500160187
 20
720.3703111707429
 30
0.0
 10
557.6128760855557
 20
721.220087636293
 30
0.0
 10
555.3231010254111
 20
721.4463923304222
 30
0.0
 10
553.3556656026014
 20
721.0194717210456
 30
0.0
 10
551.6915128827458
 20
720.3057945556603
 30
0.0
 10
549.8460481527001
 20
719.268818618193
 30
0.0
 10
548.6864811663645
 20
718.4368388357678
 30
0.0
 10
547.9326460352827
 20
717.8959683248505
 30
0.0
  0
LINE
  5
13C
330
1F
100
AcDbEntity
  8
0
  6
CONTINUOUS
 62
     7
100
AcDbLine
 10
574.7182730428
 20
741.8733075926
 30
0.0
 11
574.7182730428
 21
715.0719747612
 31
0.0
  0
LINE
  5
13D
330
1F
100
AcDbEntity
  8
0
  6
CONTINUOUS
 62
     7
100
AcDbLine
 10
345.5307686544
 20
611.0726431677
 30
0.0
 11
345.5307686544
 21
611.2726391026
 31
0.0
  0
LINE
  5
13E
330
1F
100
AcDbEntity
  8
0
  6
CONTINUOUS
 62
     7
100
AcDbLine
 10
559.8489556304
 20
712.9726395676
 30
0.0
 11
559.8489556304
 21
709.6726433107
 31
0.0
  0
LINE
  5
13F
330
1F
100
AcDbEntity
  8
0
  6
CONTINUOUS
 62
     7
100
AcDbLine
 10
559.8489556304
 20
712.9726395676
 30
0.0
 11
551.5876028529
 21
712.9726395676
 31
0.0
  0
LINE
  5
140
330
1F
100
AcDbEntity
  8
0
  6
CONTINUOUS
 62
     7
100
AcDbLine
 10
551.5876028529
 20
712.9726395676
 30
0.0
 11
551.5876028529
 21
709.6726433107
 31
0.0
  0
LINE
  5
141
330
1F
100
AcDbEntity
  8
0
  6
CONTINUOUS
 62
     7
100
AcDbLine
 10
551.6240659944
 20
709.4726399252
 30
0.0
 11
544.168269991
 21
709.4726399252
 31
0.0
  0
SPLINE
  5
142
330
1F
100
AcDbEntity
  8
0
  6
CONTINUOUS
 62
     7
100
AcDbSpline
210
0.0
220
0.0
230
1.0
 70
     8
 71
     3
 72
    10
 73
     6
 74
     0
 42
0.000000001
 43
0.00000001
 40
0.0
 40
0.0
 40
0.0
 40
0.0
 40
0.5
 40
0.5
 40
1.0
 40
1.0
 40
1.0
 40
1.0
 10
551.5875964436048
 20
709.6726401874527
 30
0.0
 10
551.5875964436048
 20
709.6193750221345
 30
0.0
 10
551.591607715355
 20
709.5674088676225
 30
0.0
 10
551.6050797091581
 20
709.4939614498538
 30
0.0
 10
551.6146108757107
 20
709.4726401874527
 30
0.0
 10
551.6240711348826
 20
709.4726401874527
 30
0.0
  0
SPLINE
  5
143
330
1F
100
AcDbEntity
  8
0
  6
CONTINUOUS
 62
     7
100
AcDbSpline
210
0.0
220
0.0
230
1.0
 70
     8
 71
     3
 72
    10
 73
     6
 74
     0
 42
0.000000001
 43
0.00000001
 40
0.0
 40
0.0
 40
0.0
 40
0.0
 40
0.5
 40
0.5
 40
1.0
 40
1.0
 40
1.0
 40
1.0
 10
559.848952264534
 20
709.6726401874527
 30
0.0
 10
559.848952264534
 20
709.6193750221345
 30
0.0
 10
559.8449409927839
 20
709.5674088676225
 30
0.0
 10
559.8314689989808
 20
709.4939614498538
 30
0.0
 10
559.821937832428
 20
709.4726401874527
 30
0.0
 10
559.8124775732563
 20
709.4726401874527
 30
0.0
  0
LINE
  5
144
330
1F
100
AcDbEntity
  8
0
  6
CONTINUOUS
 62
     7
100
AcDbLine
 10
559.8124775878
 20
709.4726399252
 30
0.0
 11
551.6240659944
 21
709.4726399252
 31
0.0
  0
LINE
  5
145
330
1F
100
AcDbEntity
  8
0
  6
CONTINUOUS
 62
     7
100
AcDbLine
 10
567.2682735911
 20
709.4726399252
 30
0.0
 11
559.8124775878
 21
709.4726399252
 31
0.0
  0
LINE
  5
146
330
1F
100
AcDbEntity
  8
0
  6
CONTINUOUS
 62
     7
100
AcDbLine
 10
308.7262276402
 20
535.4548478815
 30
0.0
 11
308.8142078212
 21
537.3579460162
 31
0.0
  0
SPLINE
  5
147
330
1F
100
AcDbEntity
  8
0
  6
CONTINUOUS
 62
     7
100
AcDbSpline
210
0.0
220
0.0
230
1.0
 70
     8
 71
     3
 72
     9
 73
     5
 74
     0
 42
0.000000001
 43
0.00000001
 40
0.0
 40
0.0
 40
0.0
 40
0.0
 40
0.2286994679229783
 40
1.0
 40
1.0
 40
1.0
 40
1.0
 10
309.4289626768519
 20
541.6683563695952
 30
0.0
 10
309.4765214610147
 20
541.9353078008655
 30
0.0
 10
309.6844746521382
 20
543.1025664468727
 30
0.0
 10
310.164370947854
 20
544.2330954709128
 30
0.0
 10
310.5345152160813
 20
545.1050731086835
 30
0.0
  0
SPLINE
  5
148
330
1F
100
AcDbEntity
  8
0
  6
CONTINUOUS
 62
     7
100
AcDbSpline
210
0.0
220
0.0
230
1.0
 70
     8
 71
     3
 72
     9
 73
     5
 74
     0
 42
0.000000001
 43
0.00000001
 40
0.0
 40
0.0
 40
0.0
 40
0.0
 40
0.7992402145906057
 40
1.0
 40
1.0
 40
1.0
 40
1.0
 10
356.672172232597
 20
537.5594950480119
 30
0.0
 10
356.7275798369929
 20
536.3756450037646
 30
0.0
 10
356.7969051829707
 20
534.8944256874246
 30
0.0
 10
356.5426358434229
 20
533.4568466250802
 30
0.0
 10
356.4915887853791
 20
533.1682385610148
 30
0.0
  0
ARC
  5
149
330
1F
100
AcDbEntity
  8
0
  6
CONTINUOUS
 62
     7
100
AcDbCircle
 10
332.7182743541
 20
536.0726401875
 30
0.0
 40
24.00000000000002
100
AcDbArc
 50
3.551879061
 51
20.3038528414
  0
ARC
  5
14A
330
1F
100
AcDbEntity
  8
0
  6
CONTINUOUS
 62
     7
100
AcDbCircle
 10
332.7182743541
 20
536.0726401875
 30
0.0
 40
24.00000000000004
100
AcDbArc
 50
181.4750334331
 51
186.7138821589
  0
LINE
  5
14B
330
1F
100
AcDbEntity
  8
0
  6
CONTINUOUS
 62
     7
100
AcDbLine
 10
310.1550254813
 20
544.2518726656
 30
0.0
 11
310.1253833464
 21
544.1688880989
 31
0.0
  0
LINE
  5
14C
330
1F
100
AcDbEntity
  8
0
  6
CONTINUOUS
 62
     7
100
AcDbLine
 10
363.6171080014
 20
561.1337446341
 30
0.0
 11
363.579285129
 21
561.1453097978
 31
0.0
  0
SPLINE
  5
14D
330
1F
100
AcDbEntity
  8
0
  6
CONTINUOUS
 62
     7
100
AcDbSpline
210
0.0
220
0.0
230
1.0
 70
     8
 71
     3
 72
    10
 73
     6
 74
     0
 42
0.000000001
 43
0.00000001
 40
0.0
 40
0.0
 40
0.0
 40
0.0
 40
0.0554949069448434
 40
0.2777413112796511
 40
0.9999999999999999
 40
0.9999999999999999
 40
0.9999999999999999
 40
0.9999999999999999
 10
356.4171295455386
 20
531.8557535962865
 30
0.0
 10
356.5476869602652
 20
532.3599575033462
 30
0.0
 10
357.201101652887
 20
534.883400860739
 30
0.0
 10
359.5025636157678
 20
543.9818010182619
 30
0.0
 10
361.5672206467624
 20
552.6024535171172
 30
0.0
 10
363.1460543564249
 20
559.1946267256245
 30
0.0
  0
SPLINE
  5
14E
330
1F
100
AcDbEntity
  8
0
  6
CONTINUOUS
 62
     7
100
AcDbSpline
210
0.0
220
0.0
230
1.0
 70
     8
 71
     3
 72
    42
 73
    38
 74
     0
 42
0.000000001
 43
0.00000001
 40
0.0
 40
0.0
 40
0.0
 40
0.0
 40
0.2499999999999974
 40
0.2499999999999974
 40
0.3749999999999961
 40
0.3749999999999961
 40
0.4999999999999948
 40
0.4999999999999948
 40
0.5624999999999943
 40
0.5624999999999943
 40
0.5937499999999941
 40
0.5937499999999941
 40
0.6249999999999942
 40
0.6249999999999942
 40
0.6562499999999943
 40
0.6562499999999943
 40
0.6874999999999944
 40
0.6874999999999944
 40
0.7031249999999946
 40
0.7031249999999946
 40
0.7187499999999946
 40
0.7187499999999946
 40
0.7499999999999953
 40
0.7499999999999953
 40
0.7656249999999958
 40
0.7656249999999958
 40
0.7812499999999962
 40
0.7812499999999962
 40
0.8124999999999967
 40
0.8124999999999967
 40
0.8437499999999971
 40
0.8437499999999971
 40
0.8749999999999976
 40
0.8749999999999976
 40
0.9374999999999988
 40
0.9374999999999988
 40
1.0
 40
1.0
 40
1.0
 40
1.0
 10
363.6171083906525
 20
561.1337449725447
 30
0.0
 10
364.8623025249633
 20
566.4167932056532
 30
0.0
 10
366.08255587053
 20
571.7057402249636
 30
0.0
 10
367.8568427616182
 20
579.6524202470847
 30
0.0
 10
368.4387968171384
 20
582.3036010226871
 30
0.0
 10
369.5731163344926
 20
587.6115914724511
 30
0.0
 10
370.1265747963203
 20
590.2683133679695
 30
0.0
 10
370.9122148517696
 20
594.2622732876418
 30
0.0
 10
371.1666662737476
 20
595.595073144182
 30
0.0
 10
371.5268347152245
 20
597.598547698955
 30
0.0
 10
371.6432570657325
 20
598.2670944269734
 30
0.0
 10
371.864289918038
 20
599.6065374340621
 30
0.0
 10
371.9693310551245
 20
600.2779151189604
 30
0.0
 10
372.1555733520636
 20
601.6224965672537
 30
0.0
 10
372.2379607446385
 20
602.2952606699242
 30
0.0
 10
372.3350972237587
 20
603.6437527080171
 30
0.0
 10
372.3458053675186
 20
604.3196705694527
 30
0.0
 10
372.2539405022579
 20
605.3383411947311
 30
0.0
 10
372.2071139020545
 20
605.6804354943173
 30
0.0
 10
372.0838801543663
 20
606.352356744767
 30
0.0
 10
372.0067341382824
 20
606.6829916612303
 30
0.0
 10
371.7247447506492
 20
607.6575771732875
 30
0.0
 10
371.4689687926982
 20
608.2840768579753
 30
0.0
 10
370.9770569998827
 20
609.1867294022629
 30
0.0
 10
370.7952773783538
 20
609.4806543405983
 30
0.0
 10
370.4072670052773
 20
610.0420917956784
 30
0.0
 10
370.1999982181197
 20
610.311649650203
 30
0.0
 10
369.5428612130181
 20
611.0905914246166
 30
0.0
 10
369.0562027937179
 20
611.5717771154962
 30
0.0
 10
368.0155829600558
 20
612.4655393483227
 30
0.0
 10
367.468296961868
 20
612.873117080192
 30
0.0
 10
366.3342434055779
 20
613.6307491529855
 30
0.0
 10
365.7469766217769
 20
613.9808711122516
 30
0.0
 10
363.9420130555174
 20
614.963429292323
 30
0.0
 10
362.6992557576415
 20
615.5208289222467
 30
0.0
 10
360.1667165979043
 20
616.5192508055799
 30
0.0
 10
358.8764034304205
 20
616.9589614829302
 30
0.0
 10
357.5698314043687
 20
617.3584206388298
 30
0.0
  0
SPLINE
  5
14F
330
1F
100
AcDbEntity
  8
0
  6
CONTINUOUS
 62
     7
100
AcDbSpline
210
0.0
220
0.0
230
1.0
 70
     8
 71
     3
 72
    11
 73
     7
 74
     0
 42
0.000000001
 43
0.00000001
 40
0.0
 40
0.0
 40
0.0
 40
0.0
 40
0.0604979680658834
 40
0.252230920382302
 40
0.6239031556947129
 40
0.9999999999999999
 40
0.9999999999999999
 40
0.9999999999999999
 40
0.9999999999999999
 10
346.718274786203
 20
619.1298500368104
 30
0.0
 10
346.9405154995345
 20
619.1466358671748
 30
0.0
 10
347.8670917377473
 20
619.2166201257804
 30
0.0
 10
350.1668453783977
 20
619.0431530729561
 30
0.0
 10
353.5889645727611
 20
618.5025223829646
 30
0.0
 10
356.237651508268
 20
617.7412904481317
 30
0.0
 10
357.5698312214304
 20
617.3584223458275
 30
0.0
  0
LINE
  5
150
330
1F
100
AcDbEntity
  8
0
  6
CONTINUOUS
 62
     8
100
AcDbLine
 10
306.7183259717
 20
471.3727445075
 30
0.0
 11
332.7182743541
 21
471.3727445075
 31
0.0
  0
LINE
  5
151
330
1F
100
AcDbEntity
  8
0
  6
CONTINUOUS
 62
     8
100
AcDbLine
 10
332.7182743541
 20
471.3727445075
 30
0.0
 11
358.7182227364
 21
471.3727445075
 31
0.0
  0
SPLINE
  5
152
330
1F
100
AcDbEntity
  8
0
  6
CONTINUOUS
 62
     8
100
AcDbSpline
210
0.0
220
0.0
230
1.0
 70
     8
 71
     3
 72
    12
 73
     8
 74
     0
 42
0.000000001
 43
0.00000001
 40
0.0
 40
0.0
 40
0.0
 40
0.0
 40
0.1195879923691923
 40
0.3208582677773056
 40
0.6181976006740454
 40
0.9104456903118855
 40
0.9999999999999999
 40
0.9999999999999999
 40
0.9999999999999999
 40
0.9999999999999999
 10
308.6372714332034
 20
524.7840662220225
 30
0.0
 10
308.703529707744
 20
525.6627766044015
 30
0.0
 10
308.8813026996125
 20
528.0203836315158
 30
0.0
 10
309.3277381458863
 20
532.7114574713427
 30
0.0
 10
309.9108812976644
 20
538.7503515928806
 30
0.0
 10
310.3926225229605
 20
543.9339704633443
 30
0.0
 10
310.7246681825404
 20
546.7190310933611
 30
0.0
 10
310.8025517157008
 20
547.37228571565
 30
0.0
  0
LINE
  5
153
330
1F
100
AcDbEntity
  8
0
  6
CONTINUOUS
 62
     8
100
AcDbLine
 10
332.7182743541
 20
610.7736439177
 30
0.0
 11
318.7177756644
 21
610.7736439177
 31
0.0
  0
LINE
  5
154
330
1F
100
AcDbEntity
  8
0
  6
CONTINUOUS
 62
     8
100
AcDbLine
 10
346.7187758377
 20
610.7736439177
 30
0.0
 11
332.7182743541
 21
610.7736439177
 31
0.0
  0
SPLINE
  5
155
330
1F
100
AcDbEntity
  8
0
  6
CONTINUOUS
 62
     8
100
AcDbSpline
210
0.0
220
0.0
230
1.0
 70
     8
 71
     3
 72
    12
 73
     8
 74
     0
 42
0.000000001
 43
0.00000001
 40
0.0
 40
0.0
 40
0.0
 40
0.0
 40
0.0986079782617588
 40
0.3929145616071982
 40
0.6861437951061616
 40
0.8852696126352402
 40
1.0
 40
1.0
 40
1.0
 40
1.0
 10
354.6278279117037
 20
547.4819368416175
 30
0.0
 10
354.7115557898344
 20
546.7558063794555
 30
0.0
 10
355.0451789216531
 20
543.8624580192179
 30
0.0
 10
355.5414758736468
 20
538.6121564892062
 30
0.0
 10
356.1211099372745
 20
532.5765208451163
 30
0.0
 10
356.5616334046731
 20
527.9514704110026
 30
0.0
 10
356.7349001289491
 20
525.6369356144006
 30
0.0
 10
356.7982379189421
 20
524.7908555635914
 30
0.0
  0
LINE
  5
156
330
1F
100
AcDbEntity
  8
0
  6
CONTINUOUS
 62
     8
100
AcDbLine
 10
332.7182743541
 20
611.5726367304
 30
0.0
 11
346.7182747862
 21
611.5726367304
 31
0.0
  0
LINE
  5
157
330
1F
100
AcDbEntity
  8
0
  6
CONTINUOUS
 62
     8
100
AcDbLine
 10
318.7182739219
 20
611.5726367304
 30
0.0
 11
332.7182743541
 21
611.5726367304
 31
0.0
  0
LINE
  5
158
330
1F
100
AcDbEntity
  8
0
  6
CONTINUOUS
 62
     8
100
AcDbLine
 10
332.7182743541
 20
683.4726468393
 30
0.0
 11
346.7182747862
 21
683.4726468393
 31
0.0
  0
LINE
  5
159
330
1F
100
AcDbEntity
  8
0
  6
CONTINUOUS
 62
     8
100
AcDbLine
 10
318.7182739219
 20
683.4726468393
 30
0.0
 11
332.7182743541
 21
683.4726468393
 31
0.0
  0
LINE
  5
15A
330
1F
100
AcDbEntity
  8
0
  6
CONTINUOUS
 62
     8
100
AcDbLine
 10
377.7182761422
 20
728.4726337263
 30
0.0
 11
377.7182761422
 21
714.4726351568
 31
0.0
  0
LINE
  5
15B
330
1F
100
AcDbEntity
  8
0
  6
CONTINUOUS
 62
     8
100
AcDbLine
 10
377.7182761422
 20
742.472647197
 30
0.0
 11
377.7182761422
 21
728.4726337263
 31
0.0
  0
LINE
  5
15C
330
1F
100
AcDbEntity
  8
0
  6
CONTINUOUS
 62
     8
100
AcDbLine
 10
310.1550254813
 20
544.2518726656
 30
0.0
 11
310.5011291644
 21
545.1215575183
 31
0.0
  0
SPLINE
  5
15D
330
1F
100
AcDbEntity
  8
0
  6
CONTINUOUS
 62
     8
100
AcDbSpline
210
0.0
220
0.0
230
1.0
 70
     8
 71
     3
 72
    12
 73
     8
 74
     0
 42
0.000000001
 43
0.00000001
 40
0.0
 40
0.0
 40
0.0
 40
0.0
 40
0.2608040952770102
 40
0.4980658598381735
 40
0.7146007224329538
 40
0.8657064771363457
 40
1.0
 40
1.0
 40
1.0
 40
1.0
 10
362.3966432950188
 20
561.506879023622
 30
0.0
 10
361.6534619622917
 20
562.9713040883624
 30
0.0
 10
360.2341849792855
 20
565.7679631218945
 30
0.0
 10
357.7175384513158
 20
569.5394445545872
 30
0.0
 10
355.2191422498251
 20
572.4766584488453
 30
0.0
 10
352.8665746396698
 20
574.6762892484287
 30
0.0
 10
351.3519561593458
 20
575.7136832074607
 30
0.0
 10
350.6392583093335
 20
576.2018249103531
 30
0.0
  0
SPLINE
  5
15E
330
1F
100
AcDbEntity
  8
0
  6
CONTINUOUS
 62
     8
100
AcDbSpline
210
0.0
220
0.0
230
1.0
 70
     8
 71
     3
 72
    10
 73
     6
 74
     0
 42
0.000000001
 43
0.00000001
 40
0.0
 40
0.0
 40
0.0
 40
0.0
 40
0.2805955858255502
 40
0.6405419897798192
 40
1.0
 40
1.0
 40
1.0
 40
1.0
 10
356.4932390889813
 20
532.5086496038094
 30
0.0
 10
357.1024153630925
 20
535.1988043843481
 30
0.0
 10
358.4930394586137
 20
541.3398742478396
 30
0.0
 10
360.1432053982643
 20
551.0753385499436
 30
0.0
 10
361.6458373681402
 20
558.0312729617057
 30
0.0
 10
362.3966432950188
 20
561.506879023622
 30
0.0
  0
SPLINE
  5
15F
330
1F
100
AcDbEntity
  8
0
  6
CONTINUOUS
 62
     8
100
AcDbSpline
210
0.0
220
0.0
230
1.0
 70
     8
 71
     3
 72
    11
 73
     7
 74
     0
 42
0.000000001
 43
0.00000001
 40
0.0
 40
0.0
 40
0.0
 40
0.0
 40
0.3728582706278464
 40
0.7489069145636637
 40
0.9318112977266955
 40
1.0
 40
1.0
 40
1.0
 40
1.0
 10
357.2061423054625
 20
616.1688700983033
 30
0.0
 10
355.9293393168114
 20
616.5343985468629
 30
0.0
 10
353.3648083353038
 20
617.2685830994412
 30
0.0
 10
350.0859384792194
 20
617.7979454789881
 30
0.0
 10
347.8518582841422
 20
617.969001673737
 30
0.0
 10
346.9603731163252
 20
617.8993890493127
 30
0.0
 10
346.718274786203
 20
617.880484528254
 30
0.0
  0
SPLINE
  5
160
330
1F
100
AcDbEntity
  8
0
  6
CONTINUOUS
 62
     8
100
AcDbSpline
210
0.0
220
0.0
230
1.0
 70
     8
 71
     3
 72
    11
 73
     7
 74
     0
 42
0.000000001
 43
0.00000001
 40
0.0
 40
0.0
 40
0.0
 40
0.0
 40
0.2346346857803281
 40
0.4613693213631291
 40
0.6856427413182856
 40
1.0
 40
1.0
 40
1.0
 40
1.0
 10
357.2061478933979
 20
616.1688626477227
 30
0.0
 10
356.5734492044293
 20
614.0994993454183
 30
0.0
 10
355.3293545225793
 20
610.0304473241335
 30
0.0
 10
353.3817209643215
 20
603.6600950508772
 30
0.0
 10
351.1973473238224
 20
596.5152449044489
 30
0.0
 10
349.6576072418442
 20
591.4788997796588
 30
0.0
 10
348.7589794984747
 20
588.5395728716359
 30
0.0
  0
SPLINE
  5
161
330
1F
100
AcDbEntity
  8
0
  6
CONTINUOUS
 62
     8
100
AcDbSpline
210
0.0
220
0.0
230
1.0
 70
     8
 71
     3
 72
    40
 73
    36
 74
     0
 42
0.000000001
 43
0.00000001
 40
0.0
 40
0.0
 40
0.0
 40
0.0
 40
0.0625000000000014
 40
0.0625000000000014
 40
0.1250000000000029
 40
0.1250000000000029
 40
0.1562500000000039
 40
0.1562500000000039
 40
0.1875000000000049
 40
0.1875000000000049
 40
0.2187500000000058
 40
0.2187500000000058
 40
0.2343750000000064
 40
0.2343750000000064
 40
0.250000000000007
 40
0.250000000000007
 40
0.2812500000000075
 40
0.2812500000000075
 40
0.2968750000000078
 40
0.2968750000000078
 40
0.312500000000008
 40
0.312500000000008
 40
0.3437500000000079
 40
0.3437500000000079
 40
0.3750000000000078
 40
0.3750000000000078
 40
0.4375000000000069
 40
0.4375000000000069
 40
0.500000000000006
 40
0.500000000000006
 40
0.6250000000000046
 40
0.6250000000000046
 40
0.750000000000003
 40
0.750000000000003
 40
1.0
 40
1.0
 40
1.0
 40
1.0
 10
357.206152792817
 20
616.1688638947669
 30
0.0
 10
358.4731545586242
 20
615.7814914067367
 30
0.0
 10
359.7234372367414
 20
615.3526802970963
 30
0.0
 10
362.1795332744847
 20
614.3848647516809
 30
0.0
 10
363.3858825965356
 20
613.8471853313015
 30
0.0
 10
365.1368877858006
 20
612.8956429808305
 30
0.0
 10
365.7060874714277
 20
612.5560220372429
 30
0.0
 10
366.802549151181
 20
611.8170403940112
 30
0.0
 10
367.3302813290332
 20
611.4176977725831
 30
0.0
 10
368.3272751190297
 20
610.5338622169172
 30
0.0
 10
368.7861955506422
 20
610.0580864282559
 30
0.0
 10
369.3960876400023
 20
609.2794774009867
 30
0.0
 10
369.5862974658939
 20
609.0090116763976
 30
0.0
 10
369.9367598937182
 20
608.4430643608835
 30
0.0
 10
370.0959181675474
 20
608.148633258619
 30
0.0
 10
370.5125136345021
 20
607.2514568640057
 30
0.0
 10
370.7135229470683
 20
606.627104765567
 30
0.0
 10
370.9121119077826
 20
605.6553663946332
 30
0.0
 10
370.9621158633249
 20
605.3239578696974
 30
0.0
 10
371.0287753075297
 20
604.665158590525
 30
0.0
 10
371.0434484568156
 20
604.3365879492646
 30
0.0
 10
371.041567748687
 20
603.3529140948053
 30
0.0
 10
370.985211131971
 20
602.6995514179974
 30
0.0
 10
370.8376131849907
 20
601.3943322338268
 30
0.0
 10
370.7447956517981
 20
600.7421039332801
 30
0.0
 10
370.444766085745
 20
598.7902538617025
 30
0.0
 10
370.2150971868909
 20
597.4949218888518
 30
0.0
 10
369.7361967221714
 20
594.9081369083929
 30
0.0
 10
369.4852672865711
 20
593.6170246538587
 30
0.0
 10
368.7138325697346
 20
589.7473946372493
 30
0.0
 10
368.1748849434487
 20
587.1725449108869
 30
0.0
 10
367.0720480340808
 20
582.0277983763224
 30
0.0
 10
366.5072772345507
 20
579.45796503863
 30
0.0
 10
364.7858730899917
 20
571.7551216936056
 30
0.0
 10
363.6030304843719
 20
566.6282184797245
 30
0.0
 10
362.3966439076121
 20
561.5068784106719
 30
0.0
  0
SPLINE
  5
162
330
1F
100
AcDbEntity
  8
0
  6
CONTINUOUS
 62
     8
100
AcDbSpline
210
0.0
220
0.0
230
1.0
 70
     8
 71
     3
 72
    19
 73
    15
 74
     0
 42
0.000000001
 43
0.00000001
 40
0.0
 40
0.0
 40
0.0
 40
0.0
 40
0.0775444259578145
 40
0.1561353030606713
 40
0.2357746187914035
 40
0.3164642820212906
 40
0.3982061267566569
 40
0.4810019156671504
 40
0.5648533434144982
 40
0.6497620397976981
 40
0.7357295727300326
 40
0.8227574510628447
 40
0.9108471272692178
 40
1.0
 40
1.0
 40
1.0
 40
1.0
 10
363.5412245660189
 20
561.1569449859936
 30
0.0
 10
363.5276693737999
 20
561.1610955207104
 30
0.0
 10
363.5003760639452
 20
561.1694526010276
 30
0.0
 10
363.4473594965203
 20
561.1857349018501
 30
0.0
 10
363.3850749827414
 20
561.2048591016564
 30
0.0
 10
363.3126208191075
 20
561.2270872302956
 30
0.0
 10
363.2302773423487
 20
561.2523167231957
 30
0.0
 10
363.1381008532452
 20
561.2805207217987
 30
0.0
 10
363.0363171902691
 20
561.3116254693314
 30
0.0
 10
362.925209077757
 20
561.3455461575351
 30
0.0
 10
362.8051939760448
 20
561.3821626213798
 30
0.0
 10
362.6766480700745
 20
561.4213764663075
 30
0.0
 10
362.540562813894
 20
561.4628998936772
 30
0.0
 10
362.4448083387235
 20
561.4921603982383
 30
0.0
 10
362.3966439076123
 20
561.5068784106729
 30
0.0
  0
LINE
  5
163
330
1F
100
AcDbEntity
  8
0
  6
CONTINUOUS
 62
     8
100
AcDbLine
 10
363.579285129
 20
561.1453097978
 30
0.0
 11
363.5412238381
 21
561.1569457421
 31
0.0
  0
LWPOLYLINE
  5
164
330
1F
100
AcDbEntity
  8
0
  6
CONTINUOUS
 62
     8
100
AcDbPolyline
 90
        9
 70
   128
 43
0.0
 10
357.5698312214
 20
617.3584223458
 10
357.5634497991
 20
617.337545819
 10
357.5444415054
 20
617.2753632733
 10
357.5132217101
 20
617.1732456157
 10
357.4704721412
 20
617.0334205696
 10
357.4171241215
 20
616.858927972
 10
357.3543473921
 20
616.6535899708
 10
357.2835072717
 20
616.4218769142
 10
357.2061534813
 20
616.1688626477
  0
LINE
  5
165
330
1F
100
AcDbEntity
  8
0
  6
CONTINUOUS
 62
     7
100
AcDbLine
 10
121.3278452233
 20
346.4417289703
 30
0.0
 11
121.3278452233
 21
301.4417271822
 31
0.0
  0
LINE
  5
166
330
1F
100
AcDbEntity
  8
0
  6
CONTINUOUS
 62
     7
100
AcDbLine
 10
149.3278460876
 20
301.4417271822
 30
0.0
 11
149.3278460876
 21
346.4417289703
 31
0.0
  0
LINE
  5
167
330
1F
100
AcDbEntity
  8
0
  6
CONTINUOUS
 62
     7
100
AcDbLine
 10
149.3278460876
 20
240.7417278497
 30
0.0
 11
149.3278460876
 21
301.4417271822
 31
0.0
  0
LINE
  5
168
330
1F
100
AcDbEntity
  8
0
  6
CONTINUOUS
 62
     7
100
AcDbLine
 10
121.3278452233
 20
301.4417271822
 30
0.0
 11
121.3278452233
 21
240.7417278497
 31
0.0
  0
ARC
  5
169
330
1F
100
AcDbEntity
  8
0
  6
CONTINUOUS
 62
     7
100
AcDbCircle
 10
149.0278456554
 20
240.7417289703
 30
0.0
 40
0.2999999999999829
100
AcDbArc
 50
270.0
 51
0.0
  0
ARC
  5
16A
330
1F
100
AcDbEntity
  8
0
  6
CONTINUOUS
 62
     7
100
AcDbCircle
 10
121.6278456554
 20
240.7417289703
 30
0.0
 40
0.2999999999999972
100
AcDbArc
 50
180.0
 51
270.0
  0
LINE
  5
16B
330
1F
100
AcDbEntity
  8
0
  6
CONTINUOUS
 62
     7
100
AcDbLine
 10
121.627845645
 20
240.441730222
 30
0.0
 11
149.0278456659
 21
240.441730222
 31
0.0
  0
LINE
  5
16C
330
1F
100
AcDbEntity
  8
0
  6
CONTINUOUS
 62
     7
100
AcDbLine
 10
121.3285092563
 20
240.1410694926
 30
0.0
 11
121.6271853373
 21
104.7410648077
 31
0.0
  0
LINE
  5
16D
330
1F
100
AcDbEntity
  8
0
  6
CONTINUOUS
 62
     7
100
AcDbLine
 10
149.0285059736
 20
104.7410648077
 30
0.0
 11
149.3271820546
 21
240.1410694926
 31
0.0
  0
ARC
  5
16E
330
1F
100
AcDbEntity
  8
0
  6
CONTINUOUS
 62
     7
100
AcDbCircle
 10
121.62850815
 20
240.1417289703
 30
0.0
 40
0.3000000000000114
100
AcDbArc
 50
90.0
 51
180.1263875441
  0
ARC
  5
16F
330
1F
100
AcDbEntity
  8
0
  6
CONTINUOUS
 62
     7
100
AcDbCircle
 10
149.0271831608
 20
240.1417289703
 30
0.0
 40
0.3000000000000114
100
AcDbArc
 50
359.8736124559
 51
90.0
  0
ARC
  5
170
330
1F
100
AcDbEntity
  8
0
  6
CONTINUOUS
 62
     7
100
AcDbCircle
 10
148.7285066903
 20
104.7417289703
 30
0.0
 40
0.2999999999999687
100
AcDbArc
 50
270.0
 51
359.8736124561
  0
ARC
  5
171
330
1F
100
AcDbEntity
  8
0
  6
CONTINUOUS
 62
     7
100
AcDbCircle
 10
121.9271846206
 20
104.7417289703
 30
0.0
 40
0.3000000000000018
100
AcDbArc
 50
180.1263875439
 51
270.0
  0
LINE
  5
172
330
1F
100
AcDbEntity
  8
0
  6
CONTINUOUS
 62
     7
100
AcDbLine
 10
219.0739063845
 20
306.8325463443
 30
0.0
 11
220.4420788512
 21
306.8325463443
 31
0.0
  0
SPLINE
  5
173
330
1F
100
AcDbEntity
  8
0
  6
CONTINUOUS
 62
     7
100
AcDbSpline
210
0.0
220
0.0
230
1.0
 70
     8
 71
     3
 72
    12
 73
     8
 74
     0
 42
0.000000001
 43
0.00000001
 40
0.0
 40
0.0
 40
0.0
 40
0.0
 40
0.1492482693556019
 40
0.3590470873070825
 40
0.604454602943875
 40
0.880420731923038
 40
1.0
 40
1.0
 40
1.0
 40
1.0
 10
217.188194237704
 20
308.1569280235875
 30
0.0
 10
217.2249424265229
 20
308.0678615273148
 30
0.0
 10
217.3133476738077
 20
307.8535939435001
 30
0.0
 10
217.6108616141347
 20
307.4325448551089
 30
0.0
 10
218.1034220717721
 20
307.058774007465
 30
0.0
 10
218.632780938684
 20
306.8404542435687
 30
0.0
 10
218.9716652294552
 20
306.866848893241
 30
0.0
 10
219.0741150007198
 20
306.8748283891786
 30
0.0
  0
SPLINE
  5
174
330
1F
100
AcDbEntity
  8
0
  6
CONTINUOUS
 62
     7
100
AcDbSpline
210
0.0
220
0.0
230
1.0
 70
     8
 71
     3
 72
    14
 73
    10
 74
     0
 42
0.000000001
 43
0.00000001
 40
0.0
 40
0.0
 40
0.0
 40
0.0
 40
0.144710430496623
 40
0.3247836154415719
 40
0.4766126479502282
 40
0.6104063866987248
 40
0.7311737546897655
 40
0.8662490534640686
 40
1.0
 40
1.0
 40
1.0
 40
1.0
 10
220.4445300922344
 20
306.8666513769734
 30
0.0
 10
220.5727407748955
 20
306.8645144811447
 30
0.0
 10
220.8604928665036
 20
306.8597184982241
 30
0.0
 10
221.2451225306958
 20
307.0491546096921
 30
0.0
 10
221.5499507107363
 20
307.3015373446229
 30
0.0
 10
221.7392196667189
 20
307.5596415247036
 30
0.0
 10
221.8457340863752
 20
307.7748847869443
 30
0.0
 10
221.9028231798221
 20
307.9353584528873
 30
0.0
 10
221.9195857784475
 20
308.0067308455064
 30
0.0
 10
221.9279257879207
 20
308.0422412364591
 30
0.0
  0
SPLINE
  5
175
330
1F
100
AcDbEntity
  8
0
  6
CONTINUOUS
 62
     7
100
AcDbSpline
210
0.0
220
0.0
230
1.0
 70
     8
 71
     3
 72
    18
 73
    14
 74
     0
 42
0.000000001
 43
0.00000001
 40
0.0
 40
0.0
 40
0.0
 40
0.0
 40
0.1592183681499219
 40
0.3392453952989037
 40
0.4887966695572482
 40
0.6079455938669046
 40
0.6968284492900071
 40
0.7442256723526874
 40
0.785750891863075
 40
0.8705207706414837
 40
0.9178130410369766
 40
0.9760951071299828
 40
1.0
 40
1.0
 40
1.0
 40
1.0
 10
213.30673231935
 20
326.5675231574882
 30
0.0
 10
213.4013498684209
 20
325.8734524918813
 30
0.0
 10
213.602950777975
 20
324.3946012760626
 30
0.0
 10
213.9229553960209
 20
322.1940318813145
 30
0.0
 10
214.2395079384432
 20
320.1028942771562
 30
0.0
 10
214.5260557350446
 20
318.3539454533945
 30
0.0
 10
214.7724881161111
 20
316.9956933538407
 30
0.0
 10
214.9781402120586
 20
315.9600630851189
 30
0.0
 10
215.2632413996012
 20
314.638271733617
 30
0.0
 10
215.6862716367422
 20
312.8727332299177
 30
0.0
 10
216.2910662547553
 20
310.8015359099848
 30
0.0
 10
216.7369503728046
 20
309.3962508311681
 30
0.0
 10
217.0763604311261
 20
308.5456577910481
 30
0.0
 10
217.1750812158535
 20
308.2982543616403
 30
0.0
  0
SPLINE
  5
176
330
1F
100
AcDbEntity
  8
0
  6
CONTINUOUS
 62
     7
100
AcDbSpline
210
0.0
220
0.0
230
1.0
 70
     8
 71
     3
 72
     9
 73
     5
 74
     0
 42
0.000000001
 43
0.00000001
 40
0.0
 40
0.0
 40
0.0
 40
0.0
 40
0.4954000571846126
 40
1.0
 40
1.0
 40
1.0
 40
1.0
 10
221.9195587859104
 20
308.0137315898049
 30
0.0
 10
222.1616477600497
 20
308.9251505730874
 30
0.0
 10
222.6503214503903
 20
310.7649141541859
 30
0.0
 10
223.138846498757
 20
312.6008144672936
 30
0.0
 10
223.3853562102268
 20
313.5272096603024
 30
0.0
  0
SPLINE
  5
177
330
1F
100
AcDbEntity
  8
0
  6
CONTINUOUS
 62
     7
100
AcDbSpline
210
0.0
220
0.0
230
1.0
 70
     8
 71
     3
 72
    15
 73
    11
 74
     0
 42
0.000000001
 43
0.00000001
 40
0.0
 40
0.0
 40
0.0
 40
0.0
 40
0.0990237816558675
 40
0.2329311933209159
 40
0.330061667590127
 40
0.4005613740274291
 40
0.5013356115494441
 40
0.6444337941648316
 40
0.8299071446605579
 40
1.0
 40
1.0
 40
1.0
 40
1.0
 10
224.079511903281
 20
344.0531734137643
 30
0.0
 10
224.0810199841002
 20
344.622881665168
 30
0.0
 10
224.0845674053253
 20
345.9629922994539
 30
0.0
 10
224.0721139650078
 20
348.0081884420514
 30
0.0
 10
224.0494814558345
 20
350.0127928037894
 30
0.0
 10
224.0144086526554
 20
352.077543036737
 30
0.0
 10
223.9600147537432
 20
354.4893454036276
 30
0.0
 10
223.8582079062206
 20
357.7903892846836
 30
0.0
 10
223.7070739213094
 20
361.6235611710628
 30
0.0
 10
223.5449954045224
 20
364.3555140784489
 30
0.0
 10
223.4674616084049
 20
365.6624033807624
 30
0.0
  0
SPLINE
  5
178
330
1F
100
AcDbEntity
  8
0
  6
CONTINUOUS
 62
     7
100
AcDbSpline
210
0.0
220
0.0
230
1.0
 70
     8
 71
     3
 72
     9
 73
     5
 74
     0
 42
0.000000001
 43
0.00000001
 40
0.0
 40
0.0
 40
0.0
 40
0.0
 40
0.5003923232809022
 40
1.0
 40
1.0
 40
1.0
 40
1.0
 10
223.3963979706714
 20
313.5168794303048
 30
0.0
 10
223.4490379804516
 20
313.735414689727
 30
0.0
 10
223.5542354571736
 20
314.1721425315718
 30
0.0
 10
223.5810367971557
 20
314.6260864323924
 30
0.0
 10
223.5944269523571
 20
314.8528802900422
 30
0.0
  0
SPLINE
  5
179
330
1F
100
AcDbEntity
  8
0
  6
CONTINUOUS
 62
     7
100
AcDbSpline
210
0.0
220
0.0
230
1.0
 70
     8
 71
     3
 72
    20
 73
    16
 74
     0
 42
0.000000001
 43
0.00000001
 40
0.0
 40
0.0
 40
0.0
 40
0.0
 40
0.0433876067421605
 40
0.1001767097649337
 40
0.1409500357685871
 40
0.1841934630163888
 40
0.2319069563998102
 40
0.3132719295486365
 40
0.3889541694530311
 40
0.4572485247951013
 40
0.5506250752398629
 40
0.6601081639478957
 40
0.7842197996230953
 40
0.9112433478947718
 40
0.9999999999999999
 40
0.9999999999999999
 40
0.9999999999999999
 40
0.9999999999999999
 10
223.5906495079944
 20
314.8243892698396
 30
0.0
 10
223.607757916361
 20
315.4014277263239
 30
0.0
 10
223.6472591515792
 20
316.7337393774817
 30
0.0
 10
223.7011192128261
 20
318.5987156043128
 30
0.0
 10
223.7528167925493
 20
320.4376993667526
 30
0.0
 10
223.7965196820588
 20
322.089874352677
 30
0.0
 10
223.8472330824441
 20
324.1897910068823
 30
0.0
 10
223.8964345681837
 20
326.6171887875354
 30
0.0
 10
223.9350067419489
 20
329.0487873328396
 30
0.0
 10
223.963562874984
 20
331.2596279473221
 30
0.0
 10
223.9859222678704
 20
333.3062401843761
 30
0.0
 10
224.0102572546352
 20
335.6387657821535
 30
0.0
 10
224.0324011997936
 20
337.9024822796527
 30
0.0
 10
224.0721443358869
 20
340.9269640176444
 30
0.0
 10
224.0764619104218
 20
343.4861570960078
 30
0.0
 10
224.0782378539989
 20
344.5388274027813
 30
0.0
  0
SPLINE
  5
17A
330
1F
100
AcDbEntity
  8
0
  6
CONTINUOUS
 62
     7
100
AcDbSpline
210
0.0
220
0.0
230
1.0
 70
     8
 71
     3
 72
    15
 73
    11
 74
     0
 42
0.000000001
 43
0.00000001
 40
0.0
 40
0.0
 40
0.0
 40
0.0
 40
0.1101280146706544
 40
0.2527490504806371
 40
0.3764249952637579
 40
0.4785178655114699
 40
0.5715426869930061
 40
0.6830373791200801
 40
0.8294094578399188
 40
1.0
 40
1.0
 40
1.0
 40
1.0
 10
199.1546823010395
 20
322.6266540347445
 30
0.0
 10
200.0400729801365
 20
322.6663736187001
 30
0.0
 10
202.072086851588
 20
322.7575319598384
 30
0.0
 10
205.2876415381723
 20
322.600259292475
 30
0.0
 10
208.403795963013
 20
322.3218897813337
 30
0.0
 10
210.8781918088291
 20
321.9896424428792
 30
0.0
 10
212.5686905787225
 20
321.6036535179462
 30
0.0
 10
213.4502223943384
 20
321.3173829000563
 30
0.0
 10
213.9952361804361
 20
321.167735882888
 30
0.0
 10
214.1347662558887
 20
321.2315814087291
 30
0.0
 10
214.2098618969867
 20
321.2659433244575
 30
0.0
  0
SPLINE
  5
17B
330
1F
100
AcDbEntity
  8
0
  6
CONTINUOUS
 62
     7
100
AcDbSpline
210
0.0
220
0.0
230
1.0
 70
     8
 71
     3
 72
    14
 73
    10
 74
     0
 42
0.000000001
 43
0.00000001
 40
0.0
 40
0.0
 40
0.0
 40
0.0
 40
0.0534971348287512
 40
0.1791860707452997
 40
0.310677975798848
 40
0.4513985037579551
 40
0.6036321147290954
 40
0.9234691881551249
 40
1.0
 40
1.0
 40
1.0
 40
1.0
 10
149.32784608757
 20
322.8632472215999
 30
0.0
 10
149.628102164678
 20
322.853968425665
 30
0.0
 10
150.6337954012712
 20
322.822889546578
 30
0.0
 10
152.7840009139266
 20
322.7681905854499
 30
0.0
 10
155.7120724032234
 20
322.7061418807467
 30
0.0
 10
159.0420908375707
 20
322.6426631389651
 30
0.0
 10
163.9908710464242
 20
322.5725924355561
 30
0.0
 10
168.4608064033843
 20
322.416507355476
 30
0.0
 10
171.7025107326742
 20
322.4822273589721
 30
0.0
 10
172.3284198269794
 20
322.49491659392
 30
0.0
  0
SPLINE
  5
17C
330
1F
100
AcDbEntity
  8
0
  6
CONTINUOUS
 62
     7
100
AcDbSpline
210
0.0
220
0.0
230
1.0
 70
     8
 71
     3
 72
    20
 73
    16
 74
     0
 42
0.000000001
 43
0.00000001
 40
0.0
 40
0.0
 40
0.0
 40
0.0
 40
0.0012714311403433
 40
0.1217286437182381
 40
0.2603655552545209
 40
0.373750763471428
 40
0.4660353807334529
 40
0.5290217316706528
 40
0.5890749487250926
 40
0.6492652991121939
 40
0.7145341260919349
 40
0.7882020574700729
 40
0.873170022012408
 40
0.9632748198270328
 40
1.0
 40
1.0
 40
1.0
 40
1.0
 10
172.3283304200122
 20
370.436932867657
 30
0.0
 10
172.3124607001505
 20
370.4371551615556
 30
0.0
 10
170.7930709245983
 20
370.458437898722
 30
0.0
 10
167.5422574285279
 20
370.3933290127278
 30
0.0
 10
162.8932281761867
 20
370.3223220297854
 30
0.0
 10
158.6135215546914
 20
370.2464905206339
 30
0.0
 10
155.2858237644078
 20
370.206116915226
 30
0.0
 10
152.72541015257
 20
370.1845669462296
 30
0.0
 10
150.6596049616114
 20
370.1729134904201
 30
0.0
 10
148.7933414745959
 20
370.1627006433973
 30
0.0
 10
147.1999788620931
 20
370.1411957773866
 30
0.0
 10
145.8144134427256
 20
370.104605545264
 30
0.0
 10
144.7332184312623
 20
370.0509750363429
 30
0.0
 10
144.0588004079422
 20
370.025255440968
 30
0.0
 10
144.1103422121543
 20
369.9585741397249
 30
0.0
 10
144.1252667755435
 20
369.93926574875
 30
0.0
  0
LINE
  5
17D
330
1F
100
AcDbEntity
  8
0
  6
CONTINUOUS
 62
     7
100
AcDbLine
 10
212.8140850291
 20
370.4417291789
 30
0.0
 11
192.6946675703
 21
370.4417291789
 31
0.0
  0
LINE
  5
17E
330
1F
100
AcDbEntity
  8
0
  6
CONTINUOUS
 62
     7
100
AcDbLine
 10
189.6871811078
 20
322.4417287617
 30
0.0
 11
201.6605882273
 21
322.4417287617
 31
0.0
  0
LINE
  5
17F
330
1F
100
AcDbEntity
  8
0
  6
CONTINUOUS
 62
     7
100
AcDbLine
 10
185.0278450475
 20
370.4417291789
 30
0.0
 11
172.3194046245
 21
370.4417291789
 31
0.0
  0
LINE
  5
180
330
1F
100
AcDbEntity
  8
0
  6
CONTINUOUS
 62
     7
100
AcDbLine
 10
172.3194046245
 20
322.4417287617
 30
0.0
 11
185.0278450475
 21
322.4417287617
 31
0.0
  0
ARC
  5
181
330
1F
100
AcDbEntity
  8
0
  6
CONTINUOUS
 62
     7
100
AcDbCircle
 10
185.0278456554
 20
370.1417289703
 30
0.0
 40
0.3000000000000114
100
AcDbArc
 50
0.0
 51
90.0
  0
ARC
  5
182
330
1F
100
AcDbEntity
  8
0
  6
CONTINUOUS
 62
     7
100
AcDbCircle
 10
185.0278456554
 20
322.7417289703
 30
0.0
 40
0.3000000000000114
100
AcDbArc
 50
270.0
 51
0.0
  0
ARC
  5
183
330
1F
100
AcDbEntity
  8
0
  6
CONTINUOUS
 62
     7
100
AcDbCircle
 10
187.1589064304
 20
334.9417289703
 30
0.0
 40
10.0
100
AcDbArc
 50
270.0
 51
279.0468459803
  0
ARC
  5
184
330
1F
100
AcDbEntity
  8
0
  6
CONTINUOUS
 62
     7
100
AcDbCircle
 10
187.1589064304
 20
357.9417289703
 30
0.0
 40
10.0
100
AcDbArc
 50
80.9531540197
 51
90.0
  0
LINE
  5
185
330
1F
100
AcDbEntity
  8
0
  6
CONTINUOUS
 62
     7
100
AcDbLine
 10
187.1589048133
 20
367.9417297005
 30
0.0
 11
185.3278464005
 21
367.9417297005
 31
0.0
  0
LINE
  5
186
330
1F
100
AcDbEntity
  8
0
  6
CONTINUOUS
 62
     7
100
AcDbLine
 10
185.3278464005
 20
324.9417282401
 30
0.0
 11
187.1589048133
 21
324.9417282401
 31
0.0
  0
ARC
  5
187
330
1F
100
AcDbEntity
  8
0
  6
CONTINUOUS
 62
     7
100
AcDbCircle
 10
185.3278456554
 20
346.4417289703
 30
0.0
 40
21.64486082191339
100
AcDbArc
 50
78.5626150552
 51
80.9531540197
  0
ARC
  5
188
330
1F
100
AcDbEntity
  8
0
  6
CONTINUOUS
 62
     7
100
AcDbCircle
 10
185.3278456554
 20
346.4417289703
 30
0.0
 40
21.64486082191336
100
AcDbArc
 50
279.0468459803
 51
280.8918881818
  0
LINE
  5
189
330
1F
100
AcDbEntity
  8
0
  6
CONTINUOUS
 62
     7
100
AcDbLine
 10
190.5755250082
 20
369.6280102937
 30
0.0
 11
190.4177813158
 21
369.4196976482
 31
0.0
  0
LINE
  5
18A
330
1F
100
AcDbEntity
  8
0
  6
CONTINUOUS
 62
     7
100
AcDbLine
 10
220.5401955471
 20
370.4417291789
 30
0.0
 11
212.8140850291
 21
370.4417291789
 31
0.0
  0
SPLINE
  5
18B
330
1F
100
AcDbEntity
  8
0
  6
CONTINUOUS
 62
     7
100
AcDbSpline
210
0.0
220
0.0
230
1.0
 70
     8
 71
     3
 72
    11
 73
     7
 74
     0
 42
0.000000001
 43
0.00000001
 40
0.0
 40
0.0
 40
0.0
 40
0.0
 40
0.107360688614381
 40
0.4571795705647104
 40
0.7661839620190259
 40
0.9999999999999999
 40
0.9999999999999999
 40
0.9999999999999999
 40
0.9999999999999999
 10
221.8873722777317
 20
369.5758040754903
 30
0.0
 10
221.8627778071593
 20
369.6302843084154
 30
0.0
 10
221.7580459016578
 20
369.862280300751
 30
0.0
 10
221.438304859855
 20
370.1723674016856
 30
0.0
 10
220.9810004119132
 20
370.409122567881
 30
0.0
 10
220.673139654254
 20
370.414529949656
 30
0.0
 10
220.5405308232257
 20
370.4168591408837
 30
0.0
  0
SPLINE
  5
18C
330
1F
100
AcDbEntity
  8
0
  6
CONTINUOUS
 62
     7
100
AcDbSpline
210
0.0
220
0.0
230
1.0
 70
     8
 71
     3
 72
     9
 73
     5
 74
     0
 42
0.000000001
 43
0.00000001
 40
0.0
 40
0.0
 40
0.0
 40
0.0
 40
0.499998741538883
 40
1.0
 40
1.0
 40
1.0
 40
1.0
 10
223.1306357607792
 20
367.1111389755118
 30
0.0
 10
222.9209420103921
 20
367.5299288768628
 30
0.0
 10
222.5015534540495
 20
368.3675107876932
 30
0.0
 10
222.0821606138477
 20
369.2050751983331
 30
0.0
 10
221.8724636659572
 20
369.6238584576953
 30
0.0
  0
SPLINE
  5
18D
330
1F
100
AcDbEntity
  8
0
  6
CONTINUOUS
 62
     7
100
AcDbSpline
210
0.0
220
0.0
230
1.0
 70
     8
 71
     3
 72
     9
 73
     5
 74
     0
 42
0.000000001
 43
0.00000001
 40
0.0
 40
0.0
 40
0.0
 40
0.0
 40
0.5003202562396498
 40
0.9999999999999999
 40
0.9999999999999999
 40
0.9999999999999999
 40
0.9999999999999999
 10
223.4633041844318
 20
365.8631890772689
 30
0.0
 10
223.4387205943234
 20
366.0833134531556
 30
0.0
 10
223.3895848861409
 20
366.5232804006087
 30
0.0
 10
223.2119173470875
 20
366.9263909327638
 30
0.0
 10
223.1231404766986
 20
367.127817100178
 30
0.0
  0
SPLINE
  5
18E
330
1F
100
AcDbEntity
  8
0
  6
CONTINUOUS
 62
     7
100
AcDbSpline
210
0.0
220
0.0
230
1.0
 70
     8
 71
     3
 72
     9
 73
     5
 74
     0
 42
0.000000001
 43
0.00000001
 40
0.0
 40
0.0
 40
0.0
 40
0.0
 40
0.575299031909376
 40
1.0
 40
1.0
 40
1.0
 40
1.0
 10
189.3339714333961
 20
322.7777909247983
 30
0.0
 10
189.3291057814293
 20
322.7686182500023
 30
0.0
 10
189.3206481764327
 20
322.7526740639577
 30
0.0
 10
189.3452073970151
 20
322.7085828789186
 30
0.0
 10
189.355637721772
 20
322.6898573099483
 30
0.0
  0
ARC
  5
18F
330
1F
100
AcDbEntity
  8
0
  6
CONTINUOUS
 62
     7
100
AcDbCircle
 10
135.3278456554
 20
346.4417289703
 30
0.0
 40
14.0
100
AcDbArc
 50
0.0
 51
180.0
  0
LINE
  5
190
330
1F
100
AcDbEntity
  8
0
  6
CONTINUOUS
 62
     7
100
AcDbLine
 10
148.7285064832
 20
104.4417302816
 30
0.0
 11
121.9271848277
 21
104.4417302816
 31
0.0
  0
LINE
  5
191
330
1F
100
AcDbEntity
  8
0
  6
CONTINUOUS
 62
     7
100
AcDbLine
 10
217.1890436039
 20
308.1526998191
 30
0.0
 11
217.1659393535
 21
308.2946073024
 31
0.0
  0
SPLINE
  5
192
330
1F
100
AcDbEntity
  8
0
  6
CONTINUOUS
 62
     7
100
AcDbSpline
210
0.0
220
0.0
230
1.0
 70
     8
 71
     3
 72
    12
 73
     8
 74
     0
 42
0.000000001
 43
0.00000001
 40
0.0
 40
0.0
 40
0.0
 40
0.0
 40
0.1459085548055483
 40
0.3231174709343982
 40
0.5574644754278231
 40
0.7775023286408895
 40
1.0
 40
1.0
 40
1.0
 40
1.0
 10
221.8702657446811
 20
308.333212485801
 30
0.0
 10
221.8600081315502
 20
308.5694504340649
 30
0.0
 10
221.8372924380316
 20
309.0926041893982
 30
0.0
 10
221.8336719334197
 20
311.4120104303284
 30
0.0
 10
221.8336237625658
 20
314.5460990137576
 30
0.0
 10
221.8343711963963
 20
318.2140427981047
 30
0.0
 10
221.8344092962132
 20
320.7049828852874
 30
0.0
 10
221.8344284520099
 20
321.9573758303035
 30
0.0
  0
SPLINE
  5
193
330
1F
100
AcDbEntity
  8
0
  6
CONTINUOUS
 62
     7
100
AcDbSpline
210
0.0
220
0.0
230
1.0
 70
     8
 71
     3
 72
     9
 73
     5
 74
     0
 42
0.000000001
 43
0.00000001
 40
0.0
 40
0.0
 40
0.0
 40
0.0
 40
0.6248748028827116
 40
1.0
 40
1.0
 40
1.0
 40
1.0
 10
213.3083341941784
 20
326.5677243231643
 30
0.0
 10
213.2139516924676
 20
327.2482125168478
 30
0.0
 10
213.0629094336418
 20
328.337211770049
 30
0.0
 10
212.989306315942
 20
329.5705981659661
 30
0.0
 10
212.9616959319065
 20
330.0332724808562
 30
0.0
  0
SPLINE
  5
194
330
1F
100
AcDbEntity
  8
0
  6
CONTINUOUS
 62
     7
100
AcDbSpline
210
0.0
220
0.0
230
1.0
 70
     8
 71
     3
 72
     9
 73
     5
 74
     0
 42
0.000000001
 43
0.00000001
 40
0.0
 40
0.0
 40
0.0
 40
0.0
 40
0.3861321341796538
 40
1.0
 40
1.0
 40
1.0
 40
1.0
 10
223.3989609703968
 20
313.5669361560452
 30
0.0
 10
223.395166399
 20
313.536230482447
 30
0.0
 10
223.3853392671432
 20
313.4567093266553
 30
0.0
 10
223.3834523434326
 20
313.517943407759
 30
0.0
 10
223.3822940216014
 20
313.5555330424417
 30
0.0
  0
ARC
  5
195
330
1F
100
AcDbEntity
  8
0
  6
CONTINUOUS
 62
     7
100
AcDbCircle
 10
135.3278456554
 20
346.4417289703
 30
0.0
 40
25.99994808588863
100
AcDbArc
 50
65.7148267416
 51
180.0
  0
ARC
  5
196
330
1F
100
AcDbEntity
  8
0
  6
CONTINUOUS
 62
     7
100
AcDbCircle
 10
135.3278456554
 20
346.4417289703
 30
0.0
 40
25.99994808588856
100
AcDbArc
 50
180.0
 51
237.4209565029
  0
SPLINE
  5
197
330
1F
100
AcDbEntity
  8
0
  6
CONTINUOUS
 62
     7
100
AcDbSpline
210
0.0
220
0.0
230
1.0
 70
     8
 71
     3
 72
    10
 73
     6
 74
     0
 42
0.000000001
 43
0.00000001
 40
0.0
 40
0.0
 40
0.0
 40
0.0
 40
0.177385772647822
 40
0.8814342191434411
 40
1.0
 40
1.0
 40
1.0
 40
1.0
 10
199.1553677544544
 20
322.6651232450116
 30
0.0
 10
199.2788327236709
 20
322.6323030608625
 30
0.0
 10
199.8923331589567
 20
322.4692187674837
 30
0.0
 10
200.7355898575429
 20
322.4272993447953
 30
0.0
 10
201.5440609391385
 20
322.4489773225445
 30
0.0
 10
201.660588227267
 20
322.4521018325198
 30
0.0
  0
LINE
  5
198
330
1F
100
AcDbEntity
  8
0
  6
CONTINUOUS
 62
     7
100
AcDbLine
 10
189.6446680949
 20
322.4926702439
 30
0.0
 11
189.6871811078
 21
322.5049040972
 31
0.0
  0
SPLINE
  5
199
330
1F
100
AcDbEntity
  8
0
  6
CONTINUOUS
 62
     7
100
AcDbSpline
210
0.0
220
0.0
230
1.0
 70
     8
 71
     3
 72
     9
 73
     5
 74
     0
 42
0.000000001
 43
0.00000001
 40
0.0
 40
0.0
 40
0.0
 40
0.0
 40
0.4844136655645925
 40
1.0
 40
1.0
 40
1.0
 40
1.0
 10
192.6946675703475
 20
370.4052939771522
 30
0.0
 10
192.3298896574144
 20
370.3963621285141
 30
0.0
 10
191.5768598837642
 20
370.3779236548024
 30
0.0
 10
191.0649626663489
 20
369.9160487889689
 30
0.0
 10
190.801035456414
 20
369.677912419926
 30
0.0
  0
LINE
  5
19A
330
1F
100
AcDbEntity
  8
0
  6
CONTINUOUS
 62
     7
100
AcDbLine
 10
185.3278464005
 20
370.1417296885
 30
0.0
 11
185.3278464005
 21
346.4417289703
 31
0.0
  0
LINE
  5
19B
330
1F
100
AcDbEntity
  8
0
  6
CONTINUOUS
 62
     7
100
AcDbLine
 10
189.3278470561
 20
322.7872531622
 30
0.0
 11
189.3278470561
 21
365.2311321108
 31
0.0
  0
ARC
  5
19C
330
1F
100
AcDbEntity
  8
0
  6
CONTINUOUS
 62
     7
100
AcDbCircle
 10
189.627557781
 20
322.7875418183
 30
0.0
 40
0.2997108638254991
100
AcDbArc
 50
180.0551824507
 51
270.0548472899
  0
LINE
  5
19D
330
1F
100
AcDbEntity
  8
0
  6
CONTINUOUS
 62
     7
100
AcDbLine
 10
185.3278464005
 20
346.4417289703
 30
0.0
 11
185.3278464005
 21
322.7417282521
 31
0.0
  0
SPLINE
  5
19E
330
1F
100
AcDbEntity
  8
0
  6
CONTINUOUS
 62
     7
100
AcDbSpline
210
0.0
220
0.0
230
1.0
 70
     8
 71
     3
 72
    10
 73
     6
 74
     0
 42
0.000000001
 43
0.00000001
 40
0.0
 40
0.0
 40
0.0
 40
0.0
 40
0.1996285726926288
 40
0.5992011604463912
 40
1.0
 40
1.0
 40
1.0
 40
1.0
 10
189.3278470561454
 20
365.2311321108449
 30
0.0
 10
189.3357165639682
 20
365.5898536509919
 30
0.0
 10
189.3593375224108
 20
366.6665851039795
 30
0.0
 10
189.611642532314
 20
368.1503208693988
 30
0.0
 10
190.0973070443035
 20
368.895441045407
 30
0.0
 10
190.3405113444278
 20
369.2685719339955
 30
0.0
  0
SPLINE
  5
19F
330
1F
100
AcDbEntity
  8
0
  6
CONTINUOUS
 62
     7
100
AcDbSpline
210
0.0
220
0.0
230
1.0
 70
     8
 71
     3
 72
     9
 73
     5
 74
     0
 42
0.000000001
 43
0.00000001
 40
0.0
 40
0.0
 40
0.0
 40
0.0
 40
0.1231382371351634
 40
1.0
 40
1.0
 40
1.0
 40
1.0
 10
221.8806295022915
 20
369.5991988985646
 30
0.0
 10
221.8806690870201
 20
369.6019476482781
 30
0.0
 10
221.880990552793
 20
369.6242701191643
 30
0.0
 10
221.881342032616
 20
369.5969436787786
 30
0.0
 10
221.8816502318332
 20
369.5729821680892
 30
0.0
  0
LINE
  5
1A0
330
1F
100
AcDbEntity
  8
0
  6
CONTINUOUS
 62
     8
100
AcDbLine
 10
135.3278456554
 20
240.7417278497
 30
0.0
 11
149.3278460876
 21
240.7417278497
 31
0.0
  0
LINE
  5
1A1
330
1F
100
AcDbEntity
  8
0
  6
CONTINUOUS
 62
     8
100
AcDbLine
 10
121.3278452233
 20
240.7417278497
 30
0.0
 11
135.3278456554
 21
240.7417278497
 31
0.0
  0
LINE
  5
1A2
330
1F
100
AcDbEntity
  8
0
  6
CONTINUOUS
 62
     8
100
AcDbLine
 10
121.6271853373
 20
104.7410648077
 30
0.0
 11
149.0285059736
 21
104.7410648077
 31
0.0
  0
LINE
  5
1A3
330
1F
100
AcDbEntity
  8
0
  6
CONTINUOUS
 62
     8
100
AcDbLine
 10
149.3271820546
 20
240.1410694926
 30
0.0
 11
121.3285092563
 21
240.1410694926
 31
0.0
  0
SPLINE
  5
1A4
330
1F
100
AcDbEntity
  8
0
  6
CONTINUOUS
 62
     8
100
AcDbSpline
210
0.0
220
0.0
230
1.0
 70
     8
 71
     3
 72
    47
 73
    43
 74
     0
 42
0.000000001
 43
0.00000001
 40
0.0
 40
0.0
 40
0.0
 40
0.0
 40
0.0317144443377112
 40
0.0629851941813204
 40
0.0938169706865943
 40
0.1242147643556624
 40
0.1541838460940926
 40
0.1837297782207192
 40
0.2128584255075625
 40
0.241575966289037
 40
0.2698889036386685
 40
0.2978040765707539
 40
0.3253286711862131
 40
0.3524702316483032
 40
0.3792366708463377
 40
0.4056362805849893
 40
0.4316777411235398
 40
0.4573701292922122
 40
0.4827229247968862
 40
0.5077460183906676
 40
0.5324497171614083
 40
0.556844748021802
 40
0.5809422597904245
 40
0.6047538237101425
 40
0.6282914322630826
 40
0.6515674961521563
 40
0.6745948393288662
 40
0.6973866919567326
 40
0.7199566812103556
 40
0.7423188198229211
 40
0.7644874923109457
 40
0.7864774388250667
 40
0.8083037366003303
 40
0.8299817790089774
 40
0.8515272522530765
 40
0.8729561097729419
 40
0.8942845444892181
 40
0.9155289590403878
 40
0.9367059342216927
 40
0.9578321958740277
 40
0.9789245805103084
 40
1.0
 40
1.0
 40
1.0
 40
1.0
 10
216.3802928169535
 20
356.8235669027511
 30
0.0
 10
216.3216186267667
 20
356.6022360819103
 30
0.0
 10
216.2050911157376
 20
356.1626709241381
 30
0.0
 10
216.0337069497385
 20
355.5014338038688
 30
0.0
 10
215.8664680723781
 20
354.8447131819738
 30
0.0
 10
215.7035671563775
 20
354.1920550659342
 30
0.0
 10
215.5450106155097
 20
353.5435783711875
 30
0.0
 10
215.3908494714544
 20
352.8992517111125
 30
0.0
 10
215.2411187530874
 20
352.2590831017878
 30
0.0
 10
215.0958533554946
 20
351.6230702031839
 30
0.0
 10
214.9550838410509
 20
350.9912133715187
 30
0.0
 10
214.8188374940754
 20
350.3635122376668
 30
0.0
 10
214.6871379892778
 20
349.7399666072777
 30
0.0
 10
214.5600054183088
 20
349.1205762280825
 30
0.0
 10
214.437456221975
 20
348.5053408551497
 30
0.0
 10
214.3195031565611
 20
347.8942602383541
 30
0.0
 10
214.2061552641028
 20
347.287334136579
 30
0.0
 10
214.097417891033
 20
346.6845623336413
 30
0.0
 10
213.9932931380554
 20
346.0859445789943
 30
0.0
 10
213.893779497878
 20
345.491480667319
 30
0.0
 10
213.7988720589533
 20
344.9011704181606
 30
0.0
 10
213.7085627116918
 20
344.3150136788767
 30
0.0
 10
213.6228403890304
 20
343.7330103307481
 30
0.0
 10
213.5416913343028
 20
343.1551602954526
 30
0.0
 10
213.465099398391
 20
342.5814635414018
 30
0.0
 10
213.3930463638465
 20
342.0119200899537
 30
0.0
 10
213.3255122930672
 20
341.4465300213225
 30
0.0
 10
213.2624758964996
 20
340.8852934800778
 30
0.0
 10
213.2039149160028
 20
340.3282106798876
 30
0.0
 10
213.1498065188057
 20
339.7752819078595
 30
0.0
 10
213.1001276946438
 20
339.2265075262119
 30
0.0
 10
213.0548556585214
 20
338.6818879786053
 30
0.0
 10
213.0139682254755
 20
338.1414237731166
 30
0.0
 10
212.977444257828
 20
337.6051155443059
 30
0.0
 10
212.945263791749
 20
337.0729638152118
 30
0.0
 10
212.9174092767774
 20
336.5449698605874
 30
0.0
 10
212.8938626042833
 20
336.0211324846123
 30
0.0
 10
212.8746176358072
 20
335.5014599311316
 30
0.0
 10
212.8596351033885
 20
334.9859256406127
 30
0.0
 10
212.8490114373371
 20
334.4746325807653
 30
0.0
 10
212.8423518891746
 20
333.9672019172917
 30
0.0
 10
212.841521269398
 20
333.6323887775509
 30
0.0
 10
212.841106126599
 20
333.4650495594684
 30
0.0
  0
SPLINE
  5
1A5
330
1F
100
AcDbEntity
  8
0
  6
CONTINUOUS
 62
     8
100
AcDbSpline
210
0.0
220
0.0
230
1.0
 70
     8
 71
     3
 72
    40
 73
    36
 74
     0
 42
0.000000001
 43
0.00000001
 40
0.0
 40
0.0
 40
0.0
 40
0.0
 40
0.0624999999999993
 40
0.0624999999999993
 40
0.1249999999999985
 40
0.1249999999999985
 40
0.1562499999999982
 40
0.1562499999999982
 40
0.1874999999999979
 40
0.1874999999999979
 40
0.2187499999999976
 40
0.2187499999999976
 40
0.2343749999999975
 40
0.2343749999999975
 40
0.2499999999999973
 40
0.2499999999999973
 40
0.2812499999999967
 40
0.2812499999999967
 40
0.2968749999999967
 40
0.2968749999999967
 40
0.3124999999999966
 40
0.3124999999999966
 40
0.3437499999999964
 40
0.3437499999999964
 40
0.3749999999999963
 40
0.3749999999999963
 40
0.4374999999999966
 40
0.4374999999999966
 40
0.499999999999997
 40
0.499999999999997
 40
0.6249999999999977
 40
0.6249999999999977
 40
0.7499999999999982
 40
0.7499999999999982
 40
1.0
 40
1.0
 40
1.0
 40
1.0
 10
217.3588321798303
 20
321.9538603762456
 30
0.0
 10
217.3588314991256
 20
323.2208683908996
 30
0.0
 10
217.3591560520827
 20
324.4971878368138
 30
0.0
 10
217.3550483089882
 20
327.0745793187715
 30
0.0
 10
217.3513702184401
 20
328.3753547485965
 30
0.0
 10
217.3431717253534
 20
330.3590995699712
 30
0.0
 10
217.3399706323179
 20
331.0209011171668
 30
0.0
 10
217.3321884502116
 20
332.3431423372395
 30
0.0
 10
217.3275983457166
 20
333.0039617008812
 30
0.0
 10
217.316496535857
 20
334.3247415829559
 30
0.0
 10
217.3101215455141
 20
334.9712543082384
 30
0.0
 10
217.2989788450363
 20
335.9122704081493
 30
0.0
 10
217.2949949117535
 20
336.2212040143049
 30
0.0
 10
217.2863128367724
 20
336.8282242573139
 30
0.0
 10
217.2816228510646
 20
337.1248162292487
 30
0.0
 10
217.2666498926772
 20
337.9718841969394
 30
0.0
 10
217.2551573454046
 20
338.4876617322043
 30
0.0
 10
217.236758090341
 20
339.1956886431874
 30
0.0
 10
217.2308266337168
 20
339.4224650964023
 30
0.0
 10
217.219757065979
 20
339.8461241619385
 30
0.0
 10
217.213723637435
 20
340.042023124886
 30
0.0
 10
217.1944764684846
 20
340.5905273859278
 30
0.0
 10
217.1817071259335
 20
340.9091614054717
 30
0.0
 10
217.1575946659181
 20
341.5166664670552
 30
0.0
 10
217.145484338414
 20
341.8044386817552
 30
0.0
 10
217.1086188250131
 20
342.6471636072849
 30
0.0
 10
217.0834547609719
 20
343.1810999077445
 30
0.0
 10
217.0335027440836
 20
344.2305852328554
 30
0.0
 10
217.0085364683151
 20
344.7445361130023
 30
0.0
 10
216.9335084376591
 20
346.268857392317
 30
0.0
 10
216.8832232654786
 20
347.2618872549721
 30
0.0
 10
216.7827517644604
 20
349.2244997729902
 30
0.0
 10
216.7325160860918
 20
350.193316125838
 30
0.0
 10
216.581559531037
 20
353.0735827475314
 30
0.0
 10
216.4809384500321
 20
354.9598896790374
 30
0.0
 10
216.3802928169534
 20
356.8235669027523
 30
0.0
  0
SPLINE
  5
1A6
330
1F
100
AcDbEntity
  8
0
  6
CONTINUOUS
 62
     8
100
AcDbSpline
210
0.0
220
0.0
230
1.0
 70
     8
 71
     3
 72
    20
 73
    16
 74
     0
 42
0.000000001
 43
0.00000001
 40
0.0
 40
0.0
 40
0.0
 40
0.0
 40
0.2499999999999988
 40
0.2499999999999988
 40
0.3749999999999984
 40
0.3749999999999984
 40
0.4999999999999981
 40
0.4999999999999981
 40
0.7499999999999974
 40
0.7499999999999974
 40
0.8124999999999978
 40
0.8124999999999978
 40
0.8749999999999981
 40
0.8749999999999981
 40
1.0
 40
1.0
 40
1.0
 40
1.0
 10
212.841106126599
 20
333.4650495594665
 30
0.0
 10
212.9694201624061
 20
332.5051954386523
 30
0.0
 10
213.1015483031863
 20
331.5453503541733
 30
0.0
 10
213.2927072862835
 20
330.1055660644088
 30
0.0
 10
213.3553751670102
 20
329.6256354759544
 30
0.0
 10
213.4860617656624
 20
328.6657869761897
 30
0.0
 10
213.5535073450147
 20
328.185867707006
 30
0.0
 10
213.7985933077252
 20
326.746211180444
 30
0.0
 10
214.0144338927832
 20
325.7865644265605
 30
0.0
 10
214.7034887615249
 20
324.5879992764625
 30
0.0
 10
214.8617015622445
 20
324.3483345822252
 30
0.0
 10
215.2281303387668
 20
323.8691236607191
 30
0.0
 10
215.4366920636762
 20
323.6295782525951
 30
0.0
 10
216.1326141265125
 20
322.9111084326803
 30
0.0
 10
216.6905609537735
 20
322.4323512536177
 30
0.0
 10
217.3588321798173
 20
321.9538554538981
 30
0.0
  0
LINE
  5
1A7
330
1F
100
AcDbEntity
  8
0
  6
CONTINUOUS
 62
     8
100
AcDbLine
 10
219.2104084716
 20
321.5901721029
 30
0.0
 11
220.3544153199
 21
321.5901721029
 31
0.0
  0
SPLINE
  5
1A8
330
1F
100
AcDbEntity
  8
0
  6
CONTINUOUS
 62
     8
100
AcDbSpline
210
0.0
220
0.0
230
1.0
 70
     8
 71
     3
 72
    42
 73
    38
 74
     0
 42
0.000000001
 43
0.00000001
 40
0.0
 40
0.0
 40
0.0
 40
0.0
 40
0.2500000000000018
 40
0.2500000000000018
 40
0.3750000000000028
 40
0.3750000000000028
 40
0.5000000000000034
 40
0.5000000000000034
 40
0.5625000000000039
 40
0.5625000000000039
 40
0.5937500000000038
 40
0.5937500000000038
 40
0.6250000000000037
 40
0.6250000000000037
 40
0.6562500000000036
 40
0.6562500000000036
 40
0.6875000000000034
 40
0.6875000000000034
 40
0.7031250000000034
 40
0.7031250000000034
 40
0.7187500000000034
 40
0.7187500000000034
 40
0.7500000000000033
 40
0.7500000000000033
 40
0.7656250000000031
 40
0.7656250000000031
 40
0.7812500000000029
 40
0.7812500000000029
 40
0.8125000000000024
 40
0.8125000000000024
 40
0.843750000000002
 40
0.843750000000002
 40
0.8750000000000016
 40
0.8750000000000016
 40
0.9375000000000008
 40
0.9375000000000008
 40
1.0
 40
1.0
 40
1.0
 40
1.0
 10
218.2424294847853
 20
358.0440313858091
 30
0.0
 10
218.3463375185725
 20
356.12210102763
 30
0.0
 10
218.4502107840166
 20
354.1761952591095
 30
0.0
 10
218.6063066765696
 20
351.2034186817905
 30
0.0
 10
218.6583355812274
 20
350.2033589837826
 30
0.0
 10
218.7623088013223
 20
348.1755618917532
 30
0.0
 10
218.8141738417351
 20
347.1487797209875
 30
0.0
 10
218.8909702731803
 20
345.5667108016318
 30
0.0
 10
218.9164240672876
 20
345.0323683693176
 30
0.0
 10
218.9547050224433
 20
344.210632786437
 30
0.0
 10
218.9674991547045
 20
343.9333047033471
 30
0.0
 10
218.9930396279393
 20
343.3675422185098
 30
0.0
 10
219.0057504550959
 20
343.0791956308745
 30
0.0
 10
219.0311748211439
 20
342.481717088612
 30
0.0
 10
219.0437485263021
 20
342.1738144206382
 30
0.0
 10
219.0691065550282
 20
341.5002770334061
 30
0.0
 10
219.0811759147667
 20
341.1311860154715
 30
0.0
 10
219.0959607581628
 20
340.4853932059428
 30
0.0
 10
219.1011771647771
 20
340.2552754903329
 30
0.0
 10
219.1121007176584
 20
339.7773764883499
 30
0.0
 10
219.1175291362466
 20
339.5285308435175
 30
0.0
 10
219.1324935011147
 20
338.74976974394
 30
0.0
 10
219.1407725311205
 20
338.1873876869383
 30
0.0
 10
219.151099434929
 20
337.2748174312458
 30
0.0
 10
219.1541973332276
 20
336.9597545554033
 30
0.0
 10
219.1597972329205
 20
336.3241275369583
 30
0.0
 10
219.1623249247986
 20
336.0015590854618
 30
0.0
 10
219.1694214846285
 20
335.0211891054473
 30
0.0
 10
219.1735521443248
 20
334.3486553672557
 30
0.0
 10
219.1814012926849
 20
332.986156928417
 30
0.0
 10
219.1850538513401
 20
332.3045216977121
 30
0.0
 10
219.1919474244382
 20
330.9406862117099
 30
0.0
 10
219.1951806382756
 20
330.2580342678545
 30
0.0
 10
219.2039162947458
 20
328.2122120927893
 30
0.0
 10
219.2083177485033
 20
326.8702256818327
 30
0.0
 10
219.2119969723477
 20
324.2123451326138
 30
0.0
 10
219.2104095265048
 20
322.8967439460525
 30
0.0
 10
219.2104058483667
 20
321.5901719200007
 30
0.0
  0
SPLINE
  5
1A9
330
1F
100
AcDbEntity
  8
0
  6
CONTINUOUS
 62
     8
100
AcDbSpline
210
0.0
220
0.0
230
1.0
 70
     8
 71
     3
 72
    14
 73
    10
 74
     0
 42
0.000000001
 43
0.00000001
 40
0.0
 40
0.0
 40
0.0
 40
0.0
 40
0.0518849253353613
 40
0.1301696296946102
 40
0.2376444530731389
 40
0.3771106477480233
 40
0.550690464630436
 40
0.7589735597108763
 40
1.0
 40
1.0
 40
1.0
 40
1.0
 10
217.6271613112347
 20
369.0807402443334
 30
0.0
 10
217.636618797055
 20
368.8964026722118
 30
0.0
 10
217.6603458703642
 20
368.4339339812235
 30
0.0
 10
217.7108337713289
 20
367.5827020747266
 30
0.0
 10
217.7793051610777
 20
366.4089088091919
 30
0.0
 10
217.8676664611956
 20
364.8772498056599
 30
0.0
 10
217.9751956625243
 20
362.9595346351337
 30
0.0
 10
218.101873885094
 20
360.6461214602239
 30
0.0
 10
218.1933553860119
 20
358.9525346799471
 30
0.0
 10
218.2424294847853
 20
358.0440313858091
 30
0.0
  0
LINE
  5
1AA
330
1F
100
AcDbEntity
  8
0
  6
CONTINUOUS
 62
     8
100
AcDbLine
 10
217.6271600947
 20
369.0807409345
 30
0.0
 11
220.5535991416
 21
369.0807409345
 31
0.0
  0
LWPOLYLINE
  5
1AB
330
1F
100
AcDbEntity
  8
0
  6
CONTINUOUS
 62
     8
100
AcDbPolyline
 90
        3
 70
   128
 43
0.0
 10
220.5536065922
 20
369.0800815581
 10
220.5535991416
 20
369.0807204454
 10
220.5535991416
 20
369.0807409345
  0
SPLINE
  5
1AC
330
1F
100
AcDbEntity
  8
0
  6
CONTINUOUS
 62
     8
100
AcDbSpline
210
0.0
220
0.0
230
1.0
 70
     8
 71
     3
 72
    48
 73
    44
 74
     0
 42
0.000000001
 43
0.00000001
 40
0.0
 40
0.0
 40
0.0
 40
0.0
 40
0.03125
 40
0.03125
 40
0.0625
 40
0.0625
 40
0.078125
 40
0.078125
 40
0.09375
 40
0.09375
 40
0.1250000000000001
 40
0.1250000000000001
 40
0.1406250000000001
 40
0.1406250000000001
 40
0.1562500000000001
 40
0.1562500000000001
 40
0.1718750000000002
 40
0.1718750000000002
 40
0.1875000000000002
 40
0.1875000000000002
 40
0.2031250000000002
 40
0.2031250000000002
 40
0.2187500000000003
 40
0.2187500000000003
 40
0.2343750000000003
 40
0.2343750000000003
 40
0.2500000000000003
 40
0.2500000000000003
 40
0.2812500000000004
 40
0.2812500000000004
 40
0.3125000000000004
 40
0.3125000000000004
 40
0.3750000000000007
 40
0.3750000000000007
 40
0.5000000000000006
 40
0.5000000000000006
 40
0.6250000000000004
 40
0.6250000000000004
 40
0.7500000000000004
 40
0.7500000000000004
 40
0.8750000000000003
 40
0.8750000000000003
 40
1.0
 40
1.0
 40
1.0
 40
1.0
 10
220.3544175456565
 20
321.5901719200007
 30
0.0
 10
220.3544175774122
 20
322.5646415964619
 30
0.0
 10
220.3543889089077
 20
323.5442394800233
 30
0.0
 10
220.3542667868021
 20
325.5170222148507
 30
0.0
 10
220.3541451625884
 20
326.51015838529
 30
0.0
 10
220.3539850706782
 20
328.0140882125215
 30
0.0
 10
220.3539565525887
 20
328.5177891223935
 30
0.0
 10
220.353872732228
 20
329.531030669498
 30
0.0
 10
220.3538141031737
 20
330.0405778289156
 30
0.0
 10
220.3538530333451
 20
331.5657329385824
 30
0.0
 10
220.3540597244586
 20
332.5820083288571
 30
0.0
 10
220.3554645025721
 20
334.1052582681867
 30
0.0
 10
220.3561942251069
 20
334.6113707614048
 30
0.0
 10
220.358531244341
 20
335.6009706130809
 30
0.0
 10
220.3601179068565
 20
336.086777077105
 30
0.0
 10
220.3648418080628
 20
337.0369783044546
 30
0.0
 10
220.3680063221011
 20
337.5053279673083
 30
0.0
 10
220.3763984904941
 20
338.3861797338134
 30
0.0
 10
220.3816100997218
 20
338.8011271080624
 30
0.0
 10
220.3941352635113
 20
339.5826791633003
 30
0.0
 10
220.4015342037807
 20
339.9493183110782
 30
0.0
 10
220.4177316282615
 20
340.6398925801486
 30
0.0
 10
220.4260609594882
 20
340.9549329365192
 30
0.0
 10
220.4480309592448
 20
341.5243117032199
 30
0.0
 10
220.4613615811207
 20
341.781206186392
 30
0.0
 10
220.4851030973109
 20
342.2678168076222
 30
0.0
 10
220.4948259833221
 20
342.4976616429859
 30
0.0
 10
220.516422718418
 20
343.1695192912948
 30
0.0
 10
220.5227741300469
 20
343.5939478397589
 30
0.0
 10
220.5335958020137
 20
344.4250885933325
 30
0.0
 10
220.5370104784575
 20
344.8309079315072
 30
0.0
 10
220.5469739393467
 20
346.0322960261273
 30
0.0
 10
220.5516201682285
 20
346.8119423056659
 30
0.0
 10
220.5637549116141
 20
349.1206143616036
 30
0.0
 10
220.5697308261863
 20
350.6189242777355
 30
0.0
 10
220.5783821474429
 20
353.5778149014844
 30
0.0
 10
220.5815128952357
 20
355.0366521719367
 30
0.0
 10
220.5843116509125
 20
357.9253507265282
 30
0.0
 10
220.5841989648869
 20
359.3549748210724
 30
0.0
 10
220.5805521404091
 20
362.1873122333881
 30
0.0
 10
220.5770377908269
 20
363.5901076551432
 30
0.0
 10
220.5671683716466
 20
366.3638572265526
 30
0.0
 10
220.5606570145067
 20
367.7357128735319
 30
0.0
 10
220.5536034177671
 20
369.0800811834514
 30
0.0
  0
SPLINE
  5
1AD
330
1F
100
AcDbEntity
  8
0
  6
CONTINUOUS
 62
     8
100
AcDbSpline
210
0.0
220
0.0
230
1.0
 70
     8
 71
     3
 72
    50
 73
    46
 74
     0
 42
0.000000001
 43
0.00000001
 40
0.0
 40
0.0
 40
0.0
 40
0.0
 40
0.1249999999999999
 40
0.1249999999999999
 40
0.2499999999999998
 40
0.2499999999999998
 40
0.3749999999999997
 40
0.3749999999999997
 40
0.4999999999999996
 40
0.4999999999999996
 40
0.6249999999999996
 40
0.6249999999999996
 40
0.6874999999999996
 40
0.6874999999999996
 40
0.7187499999999996
 40
0.7187499999999996
 40
0.7343749999999996
 40
0.7343749999999996
 40
0.7499999999999996
 40
0.7499999999999996
 40
0.7812499999999996
 40
0.7812499999999996
 40
0.7968749999999996
 40
0.7968749999999996
 40
0.8046874999999996
 40
0.8046874999999996
 40
0.8124999999999996
 40
0.8124999999999996
 40
0.8281249999999996
 40
0.8281249999999996
 40
0.8359374999999996
 40
0.8359374999999996
 40
0.8437499999999996
 40
0.8437499999999996
 40
0.8749999999999996
 40
0.8749999999999996
 40
0.9062499999999997
 40
0.9062499999999997
 40
0.9218749999999997
 40
0.9218749999999997
 40
0.9374999999999997
 40
0.9374999999999997
 40
0.9687499999999999
 40
0.9687499999999999
 40
1.0
 40
1.0
 40
1.0
 40
1.0
 10
221.8952860605827
 20
368.2986187825867
 30
0.0
 10
221.9022191614049
 20
366.9796218357196
 30
0.0
 10
221.9090424420869
 20
365.6333394734052
 30
0.0
 10
221.9215244508431
 20
362.9080007475496
 30
0.0
 10
221.9274564042823
 20
361.5279824022962
 30
0.0
 10
221.9379319818317
 20
358.7382026868714
 30
0.0
 10
221.942579015443
 20
357.3282250513154
 30
0.0
 10
221.9503342149723
 20
354.4766073555141
 30
0.0
 10
221.9533923558201
 20
353.0349856000227
 30
0.0
 10
221.9577606487463
 20
350.1105118077893
 30
0.0
 10
221.9590116216619
 20
348.6285518006209
 30
0.0
 10
221.9585824538603
 20
346.3486464309605
 30
0.0
 10
221.9581980083667
 20
345.578905675939
 30
0.0
 10
221.9560199698372
 20
344.3956849191566
 30
0.0
 10
221.9548245630511
 20
343.9970195196942
 30
0.0
 10
221.9530471796502
 20
343.3850373852245
 30
0.0
 10
221.9524278645487
 20
343.1784588085246
 30
0.0
 10
221.9503223615978
 20
342.7590950739765
 30
0.0
 10
221.9486736055411
 20
342.5472081226329
 30
0.0
 10
221.9436545073578
 20
341.8909369433518
 30
0.0
 10
221.9386814049307
 20
341.4288895207596
 30
0.0
 10
221.9120843880094
 20
340.6583243430401
 30
0.0
 10
221.9008247939902
 20
340.3888185427495
 30
0.0
 10
221.8878177448328
 20
339.9363465652225
 30
0.0
 10
221.8841309837075
 20
339.7771738134504
 30
0.0
 10
221.8773154265001
 20
339.4424863634342
 30
0.0
 10
221.8739861594865
 20
339.2672793241992
 30
0.0
 10
221.8643058075848
 20
338.7266638099487
 30
0.0
 10
221.8584458523596
 20
338.3432187383752
 30
0.0
 10
221.851340339805
 20
337.7281390566512
 30
0.0
 10
221.8491966103824
 20
337.516612160411
 30
0.0
 10
221.8454581436237
 20
337.0801243879704
 30
0.0
 10
221.8438543591694
 20
336.8539735335959
 30
0.0
 10
221.8370948248402
 20
335.7057125218005
 30
0.0
 10
221.8353526464453
 20
334.7382973760158
 30
0.0
 10
221.8336205208982
 20
332.744785128468
 30
0.0
 10
221.8336086419638
 20
331.7474065752223
 30
0.0
 10
221.8336528909948
 20
330.2507812687162
 30
0.0
 10
221.8337475417325
 20
329.7508238633252
 30
0.0
 10
221.833884525389
 20
328.7559119592672
 30
0.0
 10
221.8339313743058
 20
328.2614326046915
 30
0.0
 10
221.8341245202056
 20
326.7852084625653
 30
0.0
 10
221.8342636473126
 20
325.8105983888294
 30
0.0
 10
221.8343994322886
 20
323.8747314335343
 30
0.0
 10
221.8344308484702
 20
322.9135324643428
 30
0.0
 10
221.8344308167106
 20
321.9573759286824
 30
0.0
  0
ARC
  5
1AE
330
1F
100
AcDbEntity
  8
0
  6
CONTINUOUS
 62
     8
100
AcDbCircle
 10
220.6235371455
 20
323.6716730008
 30
0.0
 40
2.09882646852689
100
AcDbArc
 50
262.632971584
 51
305.2354167147
  0
ARC
  5
1AF
330
1F
100
AcDbEntity
  8
0
  6
CONTINUOUS
 62
     8
100
AcDbCircle
 10
220.5726509663
 20
367.5702936776
 30
0.0
 40
1.509907988027293
100
AcDbArc
 50
28.8400379271
 51
90.7226872114
  0
ARC
  5
1B0
330
1F
100
AcDbEntity
  8
0
  6
CONTINUOUS
 62
     8
100
AcDbCircle
 10
218.9742798639
 20
325.283231868
 30
0.0
 40
3.700600917143534
100
AcDbArc
 50
244.1169370645
 51
273.658424791
  0
SPLINE
  5
1B1
330
1F
100
AcDbEntity
  8
0
  6
CONTINUOUS
 62
     8
100
AcDbSpline
210
0.0
220
0.0
230
1.0
 70
     8
 71
     3
 72
    11
 73
     7
 74
     0
 42
0.000000001
 43
0.00000001
 40
0.2387320420810545
 40
0.2387320420810545
 40
0.2387320420810545
 40
0.2387320420810545
 40
0.4290490311606466
 40
0.6193660202402385
 40
0.8096830093198307
 40
1.0
 40
1.0
 40
1.0
 40
1.0
 10
216.3802928169536
 20
356.823566902751
 30
0.0
 10
216.4356624874982
 20
356.9600840754496
 30
0.0
 10
216.5803321576691
 20
357.2204518071843
 30
0.0
 10
216.8838487676589
 20
357.5534211902075
 30
0.0
 10
217.2566486626671
 20
357.813021174939
 30
0.0
 10
217.5391474399972
 20
357.9275279379295
 30
0.0
 10
217.6852374827557
 20
357.9681475601361
 30
0.0
  0
SPLINE
  5
1B2
330
1F
100
AcDbEntity
  8
0
  6
CONTINUOUS
 62
     8
100
AcDbSpline
210
0.0
220
0.0
230
1.0
 70
     8
 71
     3
 72
    11
 73
     7
 74
     0
 42
0.000000001
 43
0.00000001
 40
0.0
 40
0.0
 40
0.0
 40
0.0
 40
0.2513021431547477
 40
0.5017324456896995
 40
0.7512965108020226
 40
1.0
 40
1.0
 40
1.0
 40
1.0
 10
218.2424294847858
 20
358.0440313858005
 30
0.0
 10
218.1951235041373
 20
358.0431119893008
 30
0.0
 10
218.1006756611201
 20
358.0412763859568
 30
0.0
 10
217.9600122626284
 20
358.026209640681
 30
0.0
 10
217.8210482244255
 20
358.0030897724651
 30
0.0
 10
217.7304555771575
 20
357.9797815460999
 30
0.0
 10
217.6852374864423
 20
357.9681475611577
 30
0.0
  0
LINE
  5
1B3
330
1F
100
AcDbEntity
  8
0
  6
CONTINUOUS
 62
     8
100
AcDbLine
 10
223.1358437166
 20
365.9581765293
 30
0.0
 11
221.8952847943
 21
368.298618099
 31
0.0
  0
SPLINE
  5
1B4
330
1F
100
AcDbEntity
  8
0
  6
CONTINUOUS
 62
     8
100
AcDbSpline
210
0.0
220
0.0
230
1.0
 70
     8
 71
     3
 72
    42
 73
    38
 74
     0
 42
0.000000001
 43
0.00000001
 40
0.0
 40
0.0
 40
0.0
 40
0.0
 40
0.0087297714541877
 40
0.0169560461409633
 40
0.0246784556342429
 40
0.0318971486776698
 40
0.0386122241878171
 40
0.0448232338156795
 40
0.0505301338958013
 40
0.0557331977340316
 40
0.0713749353997342
 40
0.090807354199398
 40
0.1135311857684292
 40
0.1324452167941352
 40
0.1474871722523725
 40
0.1593630649851773
 40
0.1725587058573677
 40
0.1829192371079205
 40
0.19089714212173
 40
0.1965289122165973
 40
0.2031014185145942
 40
0.2125578144193397
 40
0.2249101181054855
 40
0.2401602723114784
 40
0.2743543896475469
 40
0.32500809875854
 40
0.3888012348958377
 40
0.4521923655065839
 40
0.515153398514452
 40
0.5776558772848303
 40
0.6396714089654286
 40
0.7011719903963793
 40
0.7621300206596249
 40
0.822518346368733
 40
0.8823102422036516
 40
0.94147942513245
 40
1.0
 40
1.0
 40
1.0
 40
1.0
 10
223.4839541380442
 20
324.8820633209278
 30
0.0
 10
223.483953117551
 20
325.1143013901268
 30
0.0
 10
223.4839511354224
 20
325.5653830063743
 30
0.0
 10
223.4839190694958
 20
326.2253852361144
 30
0.0
 10
223.4838668990075
 20
326.8473616562083
 30
0.0
 10
223.4837948437414
 20
327.4311110270355
 30
0.0
 10
223.4837051305512
 20
327.976137782649
 30
0.0
 10
223.4836007153829
 20
328.4820791749275
 30
0.0
 10
223.4834797349644
 20
328.9485217973444
 30
0.0
 10
223.4832731685952
 20
329.6741015669824
 30
0.0
 10
223.4826394140276
 20
330.7809363155073
 30
0.0
 10
223.4814844620361
 20
332.3833117282871
 30
0.0
 10
223.4785282801964
 20
334.0853309766553
 30
0.0
 10
223.4714017797152
 20
335.6414033431669
 30
0.0
 10
223.4609627065251
 20
336.841344657274
 30
0.0
 10
223.4451016282952
 20
337.8225806677881
 30
0.0
 10
223.4264138015778
 20
338.611739776686
 30
0.0
 10
223.4086347253897
 20
339.2325996155151
 30
0.0
 10
223.3964201919716
 20
339.6566814310207
 30
0.0
 10
223.3878974203828
 20
339.9878732761169
 30
0.0
 10
223.3826347357674
 20
340.3172909206251
 30
0.0
 10
223.376518859558
 20
340.7271089785468
 30
0.0
 10
223.3697473852637
 20
341.235913228729
 30
0.0
 10
223.359374457328
 20
342.0501834840387
 30
0.0
 10
223.3446800948042
 20
343.3100990821563
 30
0.0
 10
223.3241502680744
 20
345.1060664336777
 30
0.0
 10
223.3006710773569
 20
347.1765677513036
 30
0.0
 10
223.2770025124983
 20
349.3220037039271
 30
0.0
 10
223.2549047765657
 20
351.3967611922641
 30
0.0
 10
223.2343933146325
 20
353.4083845197306
 30
0.0
 10
223.215471931079
 20
355.361182836002
 30
0.0
 10
223.1981458886109
 20
357.2583678758355
 30
0.0
 10
223.1824229238791
 20
359.1018287198963
 30
0.0
 10
223.1682972298025
 20
360.8932305781448
 30
0.0
 10
223.1558123890302
 20
362.6323316793325
 30
0.0
 10
223.1448292336517
 20
364.3227768428492
 30
0.0
 10
223.1388285480669
 20
365.415049713246
 30
0.0
 10
223.1358447406685
 20
365.9581762986406
 30
0.0
  0
LWPOLYLINE
  5
1B5
330
1F
100
AcDbEntity
  8
0
  6
CONTINUOUS
 62
     8
100
AcDbPolyline
 90
        4
 70
   128
 43
0.0
 10
221.834428452
 20
321.9573758303
 10
222.3561851606
 20
322.8824771701
 10
222.9250295386
 20
323.8910641282
 10
223.4839571938
 20
324.8820639907
  0
SPLINE
  5
1B6
330
1F
100
AcDbEntity
  8
0
  6
CONTINUOUS
 62
     8
100
AcDbSpline
210
0.0
220
0.0
230
1.0
 70
     8
 71
     3
 72
    14
 73
    10
 74
     0
 42
0.000000001
 43
0.00000001
 40
0.0
 40
0.0
 40
0.0
 40
0.0
 40
0.0730996061422385
 40
0.1597287289013605
 40
0.2496436635567217
 40
0.4175841562134243
 40
0.6139457607029508
 40
0.8058306744258578
 40
1.0
 40
1.0
 40
1.0
 40
1.0
 10
219.0739063844631
 20
306.9009836523641
 30
0.0
 10
219.0825722956265
 20
306.8947554691047
 30
0.0
 10
219.1015080334226
 20
306.8811463698511
 30
0.0
 10
219.1300269226463
 20
307.3234738387356
 30
0.0
 10
219.1580296310384
 20
308.3333848556238
 30
0.0
 10
219.1781637821568
 20
310.5221569003611
 30
0.0
 10
219.1989052544605
 20
313.8654371927759
 30
0.0
 10
219.2127831080204
 20
317.6538894621866
 30
0.0
 10
219.211203133472
 20
320.27291201235
 30
0.0
 10
219.2104084715793
 20
321.5901721029389
 30
0.0
  0
SPLINE
  5
1B7
330
1F
100
AcDbEntity
  8
0
  6
CONTINUOUS
 62
     8
100
AcDbSpline
210
0.0
220
0.0
230
1.0
 70
     8
 71
     3
 72
    14
 73
    10
 74
     0
 42
0.000000001
 43
0.00000001
 40
0.0
 40
0.0
 40
0.0
 40
0.0
 40
0.1886928600699499
 40
0.3789542687713306
 40
0.5872402387337483
 40
0.7530545470444654
 40
0.8374755048804075
 40
0.9251402331101073
 40
1.0
 40
1.0
 40
1.0
 40
1.0
 10
220.3544153199146
 20
321.5901721029389
 30
0.0
 10
220.3543888937169
 20
320.3098769690019
 30
0.0
 10
220.3543358216481
 20
317.7386439816341
 30
0.0
 10
220.3538177363246
 20
313.9141300025371
 30
0.0
 10
220.3535546387771
 20
310.5099390292538
 30
0.0
 10
220.360651896126
 20
308.3206804390366
 30
0.0
 10
220.3826738470686
 20
307.3296335516062
 30
0.0
 10
220.4053687680305
 20
306.8853977111138
 30
0.0
 10
220.4305022275334
 20
306.8935435789174
 30
0.0
 10
220.442078851218
 20
306.8972956149686
 30
0.0
  0
SPLINE
  5
1B8
330
1F
100
AcDbEntity
  8
0
  6
CONTINUOUS
 62
     8
100
AcDbSpline
210
0.0
220
0.0
230
1.0
 70
     8
 71
     3
 72
    13
 73
     9
 74
     0
 42
0.000000001
 43
0.00000001
 40
0.0
 40
0.0
 40
0.0
 40
0.0
 40
0.1942471688449596
 40
0.3901564144828736
 40
0.5815176868517947
 40
0.7368803938042129
 40
0.8956848291060855
 40
1.0
 40
1.0
 40
1.0
 40
1.0
 10
217.3588348851154
 20
321.953849843036
 30
0.0
 10
217.3588874715424
 20
320.6919660672421
 30
0.0
 10
217.3589930943525
 20
318.1574012013272
 30
0.0
 10
217.3476290065913
 20
314.530936178979
 30
0.0
 10
217.3265388527993
 20
311.3946994461562
 30
0.0
 10
217.2912167532382
 20
309.0860236512979
 30
0.0
 10
217.2400329747229
 20
308.1107498040921
 30
0.0
 10
217.2065180147706
 20
308.1453758948186
 30
0.0
 10
217.1932308301876
 20
308.1591035931218
 30
0.0
  0
SPLINE
  5
1B9
330
1F
100
AcDbEntity
  8
0
  6
CONTINUOUS
 62
     8
100
AcDbSpline
210
0.0
220
0.0
230
1.0
 70
     8
 71
     3
 72
     9
 73
     5
 74
     0
 42
0.000000001
 43
0.00000001
 40
0.0
 40
0.0
 40
0.0
 40
0.0
 40
0.1566388203851732
 40
1.0
 40
1.0
 40
1.0
 40
1.0
 10
221.923835419173
 20
308.0435190110314
 30
0.0
 10
221.9223307973782
 20
308.0286433721913
 30
0.0
 10
221.9127251211407
 20
307.9336756061955
 30
0.0
 10
221.8930502227081
 20
308.039648472461
 30
0.0
 10
221.8764571771572
 20
308.1290218739617
 30
0.0
  0
SPLINE
  5
1BA
330
1F
100
AcDbEntity
  8
0
  6
CONTINUOUS
 62
     8
100
AcDbSpline
210
0.0
220
0.0
230
1.0
 70
     8
 71
     3
 72
     9
 73
     5
 74
     0
 42
0.000000001
 43
0.00000001
 40
0.0
 40
0.0
 40
0.0
 40
0.0
 40
0.2986011318696351
 40
1.0
 40
1.0
 40
1.0
 40
1.0
 10
212.9616959319065
 20
330.0332724808562
 30
0.0
 10
212.9370990758904
 20
330.356779889808
 30
0.0
 10
212.8547254563996
 20
331.4401897447076
 30
0.0
 10
212.8467219413454
 20
332.6303046812407
 30
0.0
 10
212.8411082849452
 20
333.46504995067
 30
0.0
  0
SPLINE
  5
1BB
330
1F
100
AcDbEntity
  8
0
  6
CONTINUOUS
 62
     8
100
AcDbSpline
210
0.0
220
0.0
230
1.0
 70
     8
 71
     3
 72
    13
 73
     9
 74
     0
 42
0.000000001
 43
0.00000001
 40
0.0
 40
0.0
 40
0.0
 40
0.0
 40
0.2939667898856296
 40
0.4671697619735851
 40
0.6489251746361443
 40
0.777661389629954
 40
0.9096311442824285
 40
1.0
 40
1.0
 40
1.0
 40
1.0
 10
223.4839422926853
 20
324.88177714337
 30
0.0
 10
223.4838774890145
 20
323.4096612240832
 30
0.0
 10
223.4837745035193
 20
321.0701859252634
 30
0.0
 10
223.4822224708456
 20
318.0186682331862
 30
0.0
 10
223.4777432481035
 20
315.944484191388
 30
0.0
 10
223.4627989049667
 20
314.4768853037646
 30
0.0
 10
223.4284402592837
 20
313.6971178902321
 30
0.0
 10
223.4074801453222
 20
313.6045571777016
 30
0.0
 10
223.3989609703968
 20
313.5669361560452
 30
0.0
  0
SPLINE
  5
1BC
330
1F
100
AcDbEntity
  8
0
  6
CONTINUOUS
 62
     8
100
AcDbSpline
210
0.0
220
0.0
230
1.0
 70
     8
 71
     3
 72
    14
 73
    10
 74
     0
 42
0.000000001
 43
0.00000001
 40
0.0
 40
0.0
 40
0.0
 40
0.0
 40
0.0080150373947942
 40
0.0642451642476377
 40
0.2985948372640955
 40
0.5091321268853709
 40
0.694723955483561
 40
0.8843673893022528
 40
1.0
 40
1.0
 40
1.0
 40
1.0
 10
223.4742565379093
 20
364.7699206827987
 30
0.0
 10
223.4742242437095
 20
364.7758142185759
 30
0.0
 10
223.4739653870045
 20
364.8230543193202
 30
0.0
 10
223.4727697690693
 20
365.0358261257622
 30
0.0
 10
223.4707029570401
 20
365.3400556205256
 30
0.0
 10
223.4681458069251
 20
365.6202396751191
 30
0.0
 10
223.4659551677509
 20
365.7889564406065
 30
0.0
 10
223.4642452439316
 20
365.8692890206142
 30
0.0
 10
223.4631682400933
 20
365.8658253781651
 30
0.0
 10
223.4627602920482
 20
365.86451341797
 30
0.0
  0
ARC
  5
1BD
330
1F
100
AcDbEntity
  8
0
  6
CONTINUOUS
 62
     8
100
AcDbCircle
 10
135.3278456554
 20
346.4417289703
 30
0.0
 40
14.00050113828047
100
AcDbArc
 50
0.0
 51
180.0
  0
SPLINE
  5
1BE
330
1F
100
AcDbEntity
  8
0
  6
CONTINUOUS
 62
     8
100
AcDbSpline
210
0.0
220
0.0
230
1.0
 70
     8
 71
     3
 72
    29
 73
    25
 74
     0
 42
0.000000001
 43
0.00000001
 40
0.0
 40
0.0
 40
0.0
 40
0.0
 40
0.0061264675695107
 40
0.051998493582728
 40
0.0951394832581443
 40
0.1394925901516268
 40
0.1955425209171735
 40
0.2520850102499224
 40
0.3082450440706601
 40
0.3912110307661964
 40
0.472756418254872
 40
0.5273901394197373
 40
0.5834899312181805
 40
0.6398635095091104
 40
0.6707425981964786
 40
0.7004585530213886
 40
0.7293558107234268
 40
0.7723416634542201
 40
0.8151260769306559
 40
0.8565485570796797
 40
0.9007954022604254
 40
0.9472960168030552
 40
0.9732939108118183
 40
1.0
 40
1.0
 40
1.0
 40
1.0
 10
144.0628895834634
 20
369.9193503468144
 30
0.0
 10
143.9419263246998
 20
369.9649988627473
 30
0.0
 10
142.9152486897977
 20
370.3524413874752
 30
0.0
 10
141.267300478764
 20
370.642967418817
 30
0.0
 10
139.1907515383944
 20
370.9005943010955
 30
0.0
 10
137.3314387543033
 20
370.8914980716204
 30
0.0
 10
135.7305601315272
 20
370.6890840091238
 30
0.0
 10
134.5328216324737
 20
370.3278936811031
 30
0.0
 10
133.7323528843498
 20
369.8359041888584
 30
0.0
 10
133.6351993097002
 20
369.2528385142365
 30
0.0
 10
134.4855773248782
 20
368.6763421037288
 30
0.0
 10
135.9253702176777
 20
368.100381207263
 30
0.0
 10
137.6712053411936
 20
367.4725800155754
 30
0.0
 10
139.5971422214264
 20
366.7187489125978
 30
0.0
 10
141.408001713162
 20
365.8766370272332
 30
0.0
 10
142.9062141847689
 20
365.0792473437996
 30
0.0
 10
144.7001981409229
 20
363.973704481557
 30
0.0
 10
146.8005500160242
 20
362.4058021711622
 30
0.0
 10
149.0711642214349
 20
360.1989982804382
 30
0.0
 10
151.1259813627805
 20
357.5207441559101
 30
0.0
 10
152.8247368730669
 20
354.3678260770854
 30
0.0
 10
153.8076675126208
 20
351.3121446899794
 30
0.0
 10
154.2687198033689
 20
348.6235696765406
 30
0.0
 10
154.3152274052331
 20
347.1754891411248
 30
0.0
 10
154.3387936726758
 20
346.4417197828208
 30
0.0
  0
SPLINE
  5
1BF
330
1F
100
AcDbEntity
  8
0
  6
CONTINUOUS
 62
     8
100
AcDbSpline
210
0.0
220
0.0
230
1.0
 70
     8
 71
     3
 72
    12
 73
     8
 74
     0
 42
0.000000001
 43
0.00000001
 40
0.0
 40
0.0
 40
0.0
 40
0.0
 40
0.2579618324557862
 40
0.5036759358234947
 40
0.739701821948275
 40
0.9759606534706494
 40
1.0
 40
1.0
 40
1.0
 40
1.0
 10
154.3388178870628
 20
346.441450829483
 30
0.0
 10
154.2677479387694
 20
345.1706451419921
 30
0.0
 10
154.1289823610292
 20
342.6893701494736
 30
0.0
 10
153.0802751389806
 20
339.176426994058
 30
0.0
 10
151.5339624997231
 20
336.0717705881821
 30
0.0
 10
150.2150397590171
 20
334.046588005521
 30
0.0
 10
149.4028539717315
 20
333.2092025855887
 30
0.0
 10
149.32784608757
 20
333.1318674369562
 30
0.0
  0
ARC
  5
1C0
330
1F
100
AcDbEntity
  8
0
  6
CONTINUOUS
 62
     8
100
AcDbCircle
 10
220.537343992
 20
364.5758001107
 30
0.0
 40
2.943320316114911
100
AcDbArc
 50
3.7813872161
 51
28.0123482407
  0
SPLINE
  5
1C1
330
1F
100
AcDbEntity
  8
0
  6
CONTINUOUS
 62
     8
100
AcDbSpline
210
0.0
220
0.0
230
1.0
 70
     8
 71
     3
 72
    37
 73
    33
 74
     0
 42
0.000000001
 43
0.00000001
 40
0.0
 40
0.0
 40
0.0
 40
0.0
 40
0.0106027310962878
 40
0.0211669191539949
 40
0.0316927885534318
 40
0.0421805661345488
 40
0.0526304812181331
 40
0.0630427656268477
 40
0.0734176537061025
 40
0.0837553823447322
 40
0.09405619099547
 40
0.1043203216951959
 40
0.1145480190849443
 40
0.1247395304296451
 40
0.1889030952382366
 40
0.2497389499387206
 40
0.3143340354031187
 40
0.3748219394121968
 40
0.4392452648502728
 40
0.4996303598426965
 40
0.5662893313688304
 40
0.6294629142449951
 40
0.6900897156128885
 40
0.7492306693046279
 40
0.8115352813445267
 40
0.874497627972768
 40
0.8947631625058339
 40
0.9152376691640947
 40
0.9359609770598688
 40
0.9569715009312343
 40
0.9783061045445187
 40
1.0
 40
1.0
 40
1.0
 40
1.0
 10
193.182443487744
 20
339.4248080569542
 30
0.0
 10
193.1826588353298
 20
339.5819159576107
 30
0.0
 10
193.1830887476699
 20
339.8955606404242
 30
0.0
 10
193.1865809709155
 20
340.3686868767416
 30
0.0
 10
193.1921602737368
 20
340.8423862477719
 30
0.0
 10
193.2000289490882
 20
341.316702342985
 30
0.0
 10
193.2101330898747
 20
341.7913447699581
 30
0.0
 10
193.2224870602534
 20
342.2661165858732
 30
0.0
 10
193.2370870472088
 20
342.7408005913772
 30
0.0
 10
193.2539340192562
 20
343.2151892959431
 30
0.0
 10
193.2730279035433
 20
343.6890785702702
 30
0.0
 10
193.2943680402541
 20
344.1622636177347
 30
0.0
 10
193.3179571353421
 20
344.6345616179943
 30
0.0
 10
193.3894081566869
 20
345.9380012236866
 30
0.0
 10
193.5419994506417
 20
348.0300220700281
 30
0.0
 10
193.861105813113
 20
350.9283467536678
 30
0.0
 10
194.2959860741939
 20
353.6927488330033
 30
0.0
 10
194.889003384117
 20
356.3795388113526
 30
0.0
 10
195.6458951776375
 20
358.8341351654399
 30
0.0
 10
196.6460499388544
 20
361.1422306621919
 30
0.0
 10
197.900173345867
 20
363.1626563164835
 30
0.0
 10
199.4578754022645
 20
364.8673056879667
 30
0.0
 10
201.2509819238689
 20
366.1955011505388
 30
0.0
 10
203.3194385958758
 20
367.2221075751765
 30
0.0
 10
205.6771913273712
 20
367.983151559588
 30
0.0
 10
207.7102213975359
 20
368.3912055612552
 30
0.0
 10
209.2126557298886
 20
368.6100185363475
 30
0.0
 10
210.1172724422714
 20
368.7206073483293
 30
0.0
 10
211.0448469641385
 20
368.8146987205379
 30
0.0
 10
211.9955381789044
 20
368.8930717091064
 30
0.0
 10
212.9688954237573
 20
368.9578635824263
 30
0.0
 10
213.6281532547433
 20
368.9891853211319
 30
0.0
 10
213.9605346013657
 20
369.0049769601541
 30
0.0
  0
SPLINE
  5
1C2
330
1F
100
AcDbEntity
  8
0
  6
CONTINUOUS
 62
     8
100
AcDbSpline
210
0.0
220
0.0
230
1.0
 70
     8
 71
     3
 72
     8
 73
     4
 74
     0
 42
0.000000001
 43
0.00000001
 40
0.0
 40
0.0
 40
0.0
 40
0.0
 40
1.0
 40
1.0
 40
1.0
 40
1.0
 10
213.9605346013657
 20
369.004976960154
 30
0.0
 10
215.3057962655397
 20
365.40056537138
 30
0.0
 10
216.1763924509279
 20
360.5992346236969
 30
0.0
 10
216.3802928169536
 20
356.823566902751
 30
0.0
  0
SPLINE
  5
1C3
330
1F
100
AcDbEntity
  8
0
  6
CONTINUOUS
 62
     8
100
AcDbSpline
210
0.0
220
0.0
230
1.0
 70
     8
 71
     3
 72
    63
 73
    59
 74
     0
 42
0.000000001
 43
0.00000001
 40
0.0
 40
0.0
 40
0.0
 40
0.0
 40
0.0166952021930887
 40
0.033232056755513
 40
0.0496101045498713
 40
0.0658295813466211
 40
0.0818913424000234
 40
0.0977967965476061
 40
0.1135478495703545
 40
0.1291468562253355
 40
0.1445965801084214
 40
0.1599001603236075
 40
0.1750610838250649
 40
0.1900831622536169
 40
0.2049705121039954
 40
0.2197275371237576
 40
0.234358911949486
 40
0.2488695661199194
 40
0.2632646677584813
 40
0.2775496063788543
 40
0.2917299744277558
 40
0.3058115473305629
 40
0.3198002619419313
 40
0.333702195843207
 40
0.347523638817838
 40
0.3612711196671731
 40
0.3749512794621536
 40
0.3885708372752588
 40
0.4021365636020106
 40
0.4156552540518096
 40
0.4291337035523529
 40
0.4425786812940098
 40
0.4559969066209583
 40
0.4693950260573633
 40
0.4827795916409193
 40
0.4961570407234633
 40
0.5095336773888082
 40
0.5229156556306933
 40
0.5363089644272572
 40
0.549719414841115
 40
0.563152629264339
 40
0.5766140329137546
 40
0.5901088476631587
 40
0.6036420882744903
 40
0.6172185610599705
 40
0.6308428649720732
 40
0.6445193950792952
 40
0.6582523483444426
 40
0.690408470584574
 40
0.7229361575264464
 40
0.75587411150365
 40
0.7892548846932144
 40
0.8231054331371518
 40
0.8574475783642955
 40
0.8922983044627514
 40
0.9276698550132985
 40
0.963569638972551
 40
1.0
 40
1.0
 40
1.0
 40
1.0
 10
193.1822967009727
 20
339.4249504091901
 30
0.0
 10
193.3600877405657
 20
339.4246932911046
 30
0.0
 10
193.7139835394931
 20
339.4241814936007
 30
0.0
 10
194.2421157183392
 20
339.4197369403076
 30
0.0
 10
194.7648175220272
 20
339.4126053557202
 30
0.0
 10
195.2819002502513
 20
339.4025348606721
 30
0.0
 10
195.7931870575799
 20
339.3895968940296
 30
0.0
 10
196.2985113879979
 20
339.3737751973363
 30
0.0
 10
196.7977155657856
 20
339.3550755340918
 30
0.0
 10
197.2906496317075
 20
339.3334977113066
 30
0.0
 10
197.7771703891401
 20
339.3090437838891
 30
0.0
 10
198.2571406509705
 20
339.2817165407615
 30
0.0
 10
198.7304286661164
 20
339.2515204089954
 30
0.0
 10
199.1969077041942
 20
339.2184615893289
 30
0.0
 10
199.6564557749792
 20
339.1825482838416
 30
0.0
 10
200.1089554592406
 20
339.1437908078715
 30
0.0
 10
200.5542938282328
 20
339.1022016598945
 30
0.0
 10
200.9923624306607
 20
339.0577955474847
 30
0.0
 10
201.4230573280786
 20
339.0105893853633
 30
0.0
 10
201.8462791622436
 20
338.9606022757216
 30
0.0
 10
202.261933240754
 20
338.9078554762705
 30
0.0
 10
202.6699296301892
 20
338.8523723747545
 30
0.0
 10
203.0701832718411
 20
338.7941784260877
 30
0.0
 10
203.4626149933929
 20
338.7333010843132
 30
0.0
 10
203.847152912655
 20
338.6697690789238
 30
0.0
 10
204.2237327432192
 20
338.6036119630656
 30
0.0
 10
204.5922971106752
 20
338.5348606601174
 30
0.0
 10
204.9527944478033
 20
338.4635473749498
 30
0.0
 10
205.3051788355376
 20
338.389705525199
 30
0.0
 10
205.6494099111589
 20
338.3133696199365
 30
0.0
 10
205.9854527742413
 20
338.2345751501741
 30
0.0
 10
206.3132778916152
 20
338.1533584760392
 30
0.0
 10
206.632861002026
 20
338.0697567140041
 30
0.0
 10
206.9441830204595
 20
337.9838076232003
 30
0.0
 10
207.2472299413661
 20
337.8955494916282
 30
0.0
 10
207.541992739327
 20
337.8050210231758
 30
0.0
 10
207.8284672651296
 20
337.7122612268308
 30
0.0
 10
208.1066541347709
 20
337.6173093097379
 30
0.0
 10
208.3765586087914
 20
337.5202045758292
 30
0.0
 10
208.6381904589372
 20
337.4209863320584
 30
0.0
 10
208.8915638208267
 20
337.3196938030649
 30
0.0
 10
209.1366970262324
 20
337.2163660588675
 30
0.0
 10
209.3736124296821
 20
337.111041944734
 30
0.0
 10
209.6023361680561
 20
337.0037600584103
 30
0.0
 10
209.8228980803341
 20
336.8945586076414
 30
0.0
 10
210.0353309371096
 20
336.7834757741464
 30
0.0
 10
210.2396721755552
 20
336.6705482320959
 30
0.0
 10
210.523433357719
 20
336.5046846123645
 30
0.0
 10
210.8690074780589
 20
336.2822989526289
 30
0.0
 10
211.2514887055324
 20
335.9995258111097
 30
0.0
 10
211.591766020345
 20
335.7081240506301
 30
0.0
 10
211.8904482691543
 20
335.4085565960453
 30
0.0
 10
212.1481966397935
 20
335.101275231753
 30
0.0
 10
212.3656190641442
 20
334.7867208479431
 30
0.0
 10
212.5436349795873
 20
334.4653175473454
 30
0.0
 10
212.6821519620115
 20
334.1374293650898
 30
0.0
 10
212.7851869424738
 20
333.8034550122913
 30
0.0
 10
212.8224024054271
 20
333.5783845191399
 30
0.0
 10
212.8411466337351
 20
333.4650237713683
 30
0.0
  0
SPLINE
  5
1C4
330
1F
100
AcDbEntity
  8
0
  6
CONTINUOUS
 62
     8
100
AcDbSpline
210
0.0
220
0.0
230
1.0
 70
     8
 71
     3
 72
    20
 73
    16
 74
     0
 42
0.000000001
 43
0.00000001
 40
0.0
 40
0.0
 40
0.0
 40
0.0
 40
0.1025677814455935
 40
0.2029480936862404
 40
0.2732218055139887
 40
0.3410658113047423
 40
0.4065194123426599
 40
0.4774111140588204
 40
0.54528751203141
 40
0.6102305520835326
 40
0.6809414610857807
 40
0.7486386528663537
 40
0.8135019378042173
 40
0.9220217752550676
 40
1.0
 40
1.0
 40
1.0
 40
1.0
 10
193.182442180867
 20
339.4248080200363
 30
0.0
 10
193.1900322401727
 20
338.5023724529502
 30
0.0
 10
193.2050504851358
 20
336.6771741572475
 30
0.0
 10
193.3184127460773
 20
334.3741092933062
 30
0.0
 10
193.4711252230645
 20
332.4793476903172
 30
0.0
 10
193.6471943414981
 20
330.9576945387821
 30
0.0
 10
193.8716460430592
 20
329.533199634479
 30
0.0
 10
194.1511650000624
 20
328.222103474284
 30
0.0
 10
194.4934683809352
 20
327.0391915520391
 30
0.0
 10
194.9040797709199
 20
325.9840818427529
 30
0.0
 10
195.3943466551029
 20
325.065552750376
 30
0.0
 10
195.9746609226629
 20
324.2889331924043
 30
0.0
 10
196.7852091053526
 20
323.5377459774619
 30
0.0
 10
197.7769455306664
 20
322.9494095811256
 30
0.0
 10
198.7489535567836
 20
322.748942267374
 30
0.0
 10
199.1553677544544
 20
322.6651232450116
 30
0.0
  0
SPLINE
  5
1C5
330
1F
100
AcDbEntity
  8
0
  6
CONTINUOUS
 62
     8
100
AcDbSpline
210
0.0
220
0.0
230
1.0
 70
     8
 71
     3
 72
     9
 73
     5
 74
     0
 42
0.000000001
 43
0.00000001
 40
0.0
 40
0.0
 40
0.0
 40
0.0
 40
0.500889857123222
 40
1.0
 40
1.0
 40
1.0
 40
1.0
 10
172.3280162543946
 20
346.4416019776864
 30
0.0
 10
172.3279611130469
 20
346.3358685455341
 30
0.0
 10
172.3278510262745
 20
346.1247773632141
 30
0.0
 10
172.3278342556702
 20
345.9137398612117
 30
0.0
 10
172.3278258852914
 20
345.808408903435
 30
0.0
  0
SPLINE
  5
1C6
330
1F
100
AcDbEntity
  8
0
  6
CONTINUOUS
 62
     8
100
AcDbSpline
210
0.0
220
0.0
230
1.0
 70
     8
 71
     3
 72
    49
 73
    45
 74
     0
 42
0.000000001
 43
0.00000001
 40
0.0
 40
0.0
 40
0.0
 40
0.0
 40
0.0066698606375284
 40
0.0133134024651879
 40
0.0199307912033191
 40
0.0265222806666328
 40
0.0330881817750962
 40
0.0396287519852309
 40
0.0461441597604254
 40
0.0526346838458402
 40
0.0591006112559707
 40
0.0655426595807289
 40
0.071962436850932
 40
0.0783609344884889
 40
0.0847384632251272
 40
0.0910948324665501
 40
0.0974294763018347
 40
0.1037415820824563
 40
0.110030197652538
 40
0.116294315720948
 40
0.1225330093366603
 40
0.1287456406722341
 40
0.1786441086004096
 40
0.2257830774870355
 40
0.2698302014025587
 40
0.3113830149774222
 40
0.3683136843205941
 40
0.4244464400389192
 40
0.4777066395324246
 40
0.5315096147302072
 40
0.5862715001748425
 40
0.6427472940484739
 40
0.6928820820702795
 40
0.745300667892353
 40
0.7995767198202981
 40
0.854784815032659
 40
0.8916738644214747
 40
0.9287756029626936
 40
0.9405924190453926
 40
0.9524342280827848
 40
0.9642978982214291
 40
0.9761813375045237
 40
0.9880828757130682
 40
1.0
 40
1.0
 40
1.0
 40
1.0
 10
172.3278485776733
 20
347.1497325911704
 30
0.0
 10
172.327848143341
 20
347.315548609315
 30
0.0
 10
172.3278472763902
 20
347.6465263470375
 30
0.0
 10
172.3278419085338
 20
348.1414220197746
 30
0.0
 10
172.327836804034
 20
348.6336771077536
 30
0.0
 10
172.3278351868321
 20
349.1230791000154
 30
0.0
 10
172.3278378413487
 20
349.6094555733653
 30
0.0
 10
172.3278428198523
 20
350.0926344215815
 30
0.0
 10
172.327847438885
 20
350.5724619338939
 30
0.0
 10
172.327847851837
 20
351.0487724234217
 30
0.0
 10
172.3278459478524
 20
351.5214213548606
 30
0.0
 10
172.3278461232198
 20
351.990301513795
 30
0.0
 10
172.3278469202428
 20
352.4553305371687
 30
0.0
 10
172.3278477861452
 20
352.9164191960382
 30
0.0
 10
172.3278490672918
 20
353.3734352842544
 30
0.0
 10
172.3278435305865
 20
353.8262125093496
 30
0.0
 10
172.3278294049176
 20
354.274565637397
 30
0.0
 10
172.3278164932816
 20
354.7182975480689
 30
0.0
 10
172.3278119444034
 20
355.1572072844415
 30
0.0
 10
172.327815204185
 20
355.5910930167178
 30
0.0
 10
172.3278194024116
 20
356.0197847415462
 30
0.0
 10
172.3278550973421
 20
357.435835798366
 30
0.0
 10
172.3278401724048
 20
359.6911739330878
 30
0.0
 10
172.3278421218748
 20
362.4762675875939
 30
0.0
 10
172.3278729232428
 20
364.7832062038926
 30
0.0
 10
172.3278275585627
 20
366.898211038612
 30
0.0
 10
172.3278807139473
 20
368.6978427874205
 30
0.0
 10
172.3278228164268
 20
369.9580377835282
 30
0.0
 10
172.3278879167657
 20
370.5176630237942
 30
0.0
 10
172.327838729508
 20
370.4004573458755
 30
0.0
 10
172.3278692712583
 20
369.589165723898
 30
0.0
 10
172.3278603882486
 20
368.125517750598
 30
0.0
 10
172.3278154779723
 20
366.0935150783997
 30
0.0
 10
172.3278473069092
 20
363.5789680062618
 30
0.0
 10
172.3278625814689
 20
360.5053491845061
 30
0.0
 10
172.3278517190131
 20
357.3612935844695
 30
0.0
 10
172.3278418720384
 20
354.3882548909278
 30
0.0
 10
172.3278438628197
 20
352.3311539335847
 30
0.0
 10
172.3278474213061
 20
350.850580598812
 30
0.0
 10
172.3278340414811
 20
349.9789236850419
 30
0.0
 10
172.3278409137188
 20
349.1008528189651
 30
0.0
 10
172.3278533998077
 20
348.217656108439
 30
0.0
 10
172.327831500486
 20
347.330729964283
 30
0.0
 10
172.3278421418299
 20
346.7381936731675
 30
0.0
 10
172.3278474659835
 20
346.4417316603622
 30
0.0
  0
SPLINE
  5
1C7
330
1F
100
AcDbEntity
  8
0
  6
CONTINUOUS
 62
     8
100
AcDbSpline
210
0.0
220
0.0
230
1.0
 70
     8
 71
     3
 72
    14
 73
    10
 74
     0
 42
0.000000001
 43
0.00000001
 40
0.0
 40
0.0
 40
0.0
 40
0.0
 40
0.1388565046025544
 40
0.2789659736941625
 40
0.4203781151796251
 40
0.5631412762917691
 40
0.7073024450236945
 40
0.8529072559444936
 40
1.0
 40
1.0
 40
1.0
 40
1.0
 10
213.9605346013657
 20
369.0049769601541
 30
0.0
 10
214.1294319378983
 20
369.0119808874282
 30
0.0
 10
214.4687506473463
 20
369.0260519415521
 30
0.0
 10
214.9814662648933
 20
369.0428926020597
 30
0.0
 10
215.4997150076177
 20
369.0568096892126
 30
0.0
 10
216.0236131513372
 20
369.0675407310368
 30
0.0
 10
216.5531290138759
 20
369.0751380867853
 30
0.0
 10
217.0882712828111
 20
369.0798719746142
 30
0.0
 10
217.4469235633821
 20
369.080449841892
 30
0.0
 10
217.6271613112349
 20
369.0807402443301
 30
0.0
  0
SPLINE
  5
1C8
330
1F
100
AcDbEntity
  8
0
  6
CONTINUOUS
 62
     8
100
AcDbSpline
210
0.0
220
0.0
230
1.0
 70
     8
 71
     3
 72
    12
 73
     8
 74
     0
 42
0.000000001
 43
0.00000001
 40
0.0
 40
0.0
 40
0.0
 40
0.0
 40
0.1785740703528483
 40
0.3813607532770217
 40
0.5851453866231411
 40
0.7920392526119651
 40
1.0
 40
1.0
 40
1.0
 40
1.0
 10
212.8140850291202
 20
370.4238924889672
 30
0.0
 10
212.8855093069873
 20
370.4223363828009
 30
0.0
 10
213.0380421823135
 20
370.4190131801737
 30
0.0
 10
213.2681613667054
 20
370.2481716725428
 30
0.0
 10
213.5046088076642
 20
369.9646849124422
 30
0.0
 10
213.7370935741659
 20
369.5619004339621
 30
0.0
 10
213.8859174591055
 20
369.1909602823973
 30
0.0
 10
213.9605207667301
 20
369.0050132333148
 30
0.0
  0
LINE
  5
1C9
330
1F
100
AcDbEntity
  8
0
  6
CONTINUOUS
 62
     8
100
AcDbLine
 10
189.6278446839
 20
322.4878310918
 30
0.0
 11
189.6446680949
 21
322.4926702439
 31
0.0
  0
SPLINE
  5
1CA
330
1F
100
AcDbEntity
  8
0
  6
CONTINUOUS
 62
     8
100
AcDbSpline
210
0.0
220
0.0
230
1.0
 70
     8
 71
     3
 72
    11
 73
     7
 74
     0
 42
0.000000001
 43
0.00000001
 40
0.0
 40
0.0
 40
0.0
 40
0.0
 40
0.0565394052979567
 40
0.4290888705470038
 40
0.813730958742686
 40
1.0
 40
1.0
 40
1.0
 40
1.0
 10
190.801035456414
 20
369.677912419926
 30
0.0
 10
190.7504440105791
 20
369.644955029773
 30
0.0
 10
190.3664953956573
 20
369.3948347951789
 30
0.0
 10
189.9539648497093
 20
368.3853487672071
 30
0.0
 10
189.6556207746808
 20
366.9470186661903
 30
0.0
 10
189.6346777019697
 20
365.8325763411048
 30
0.0
 10
189.6278446838806
 20
365.468971407305
 30
0.0
  0
LINE
  5
1CB
330
1F
100
AcDbEntity
  8
0
  6
CONTINUOUS
 62
     8
100
AcDbLine
 10
185.3278464005
 20
346.4417289703
 30
0.0
 11
185.0278450475
 21
346.4417289703
 31
0.0
  0
SPLINE
  5
1CC
330
1F
100
AcDbEntity
  8
0
  6
CONTINUOUS
 62
     8
100
AcDbSpline
210
0.0
220
0.0
230
1.0
 70
     8
 71
     3
 72
     9
 73
     5
 74
     0
 42
0.000000001
 43
0.00000001
 40
0.0
 40
0.0
 40
0.0
 40
0.0
 40
0.557311895317974
 40
1.0
 40
1.0
 40
1.0
 40
1.0
 10
220.5535991415927
 20
369.0807409345019
 30
0.0
 10
220.5510711238952
 20
369.5183764441516
 30
0.0
 10
220.5465350324916
 20
370.3036378270978
 30
0.0
 10
220.5421408149389
 20
370.3788533546235
 30
0.0
 10
220.5401955470989
 20
370.4121503739465
 30
0.0
  0
ARC
  5
1CD
330
1F
100
AcDbEntity
  8
0
  6
CONTINUOUS
 62
     8
100
AcDbCircle
 10
220.5726715303
 20
367.5709729181
 30
0.0
 40
1.509888479155626
100
AcDbArc
 50
28.8403112836
 51
90.7237597038
  0
SPLINE
  5
1CE
330
1F
100
AcDbEntity
  8
0
  6
CONTINUOUS
 62
     8
100
AcDbSpline
210
0.0
220
0.0
230
1.0
 70
     8
 71
     3
 72
     9
 73
     5
 74
     0
 42
0.000000001
 43
0.00000001
 40
0.0
 40
0.0
 40
0.0
 40
0.0
 40
0.4366940059301812
 40
0.9999999999999999
 40
0.9999999999999999
 40
0.9999999999999999
 40
0.9999999999999999
 10
221.8816502318332
 20
369.5729821680892
 30
0.0
 10
221.8836068558969
 20
369.5434988616946
 30
0.0
 10
221.8880873938415
 20
369.4759840664506
 30
0.0
 10
221.8926913552613
 20
368.7232932263657
 30
0.0
 10
221.8952847943256
 20
368.2992979644645
 30
0.0
  0
LINE
  5
1CF
330
1F
100
AcDbEntity
  8
0
  6
CONTINUOUS
 62
     8
100
AcDbLine
 10
221.8952847943
 20
368.2992979645
 30
0.0
 11
221.8952847943
 21
368.298618099
 31
0.0
  0
SPLINE
  5
1D0
330
1F
100
AcDbEntity
  8
0
  6
CONTINUOUS
 62
     8
100
AcDbSpline
210
0.0
220
0.0
230
1.0
 70
     8
 71
     3
 72
     9
 73
     5
 74
     0
 42
0.000000001
 43
0.00000001
 40
0.0
 40
0.0
 40
0.0
 40
0.0
 40
0.5143516692532317
 40
1.0
 40
1.0
 40
1.0
 40
1.0
 10
223.1358437166164
 20
365.9581765292991
 30
0.0
 10
223.1336042718428
 20
366.3287410191951
 30
0.0
 10
223.1292503542655
 20
367.0491906882592
 30
0.0
 10
223.1250575135189
 20
367.0882305325722
 30
0.0
 10
223.1230212674091
 20
367.1071901677955
 30
0.0
  0
ENDSEC
  0
SECTION
  2
OBJECTS
  0
DICTIONARY
  5
C
330
0
100
AcDbDictionary
  3
ACAD_GROUP
350
D
  3
ACAD_MLINESTYLE
350
17
  3
ACAD_SCALELIST
350
47
  0
DICTIONARY
  5
D
102
{ACAD_REACTORS
330
C
102
}
330
C
100
AcDbDictionary
  0
DICTIONARY
  5
17
102
{ACAD_REACTORS
330
C
102
}
330
C
100
AcDbDictionary
  3
STANDARD
350
18
  0
DICTIONARY
  5
47
102
{ACAD_REACTORS
330
C
102
}
330
C
100
AcDbDictionary
  0
MLINESTYLE
  5
18
102
{ACAD_REACTORS
330
17
102
}
330
17
100
AcDbMlineStyle
  2
Standard
 70
     0
  3

 62
   256
 51
90.0
 52
90.0
 71
     2
 49
0.5
 62
   256
  6
BYLAYER
 49
-0.5
 62
   256
  6
BYLAYER
  0
ENDSEC
  0
EOF
